  0
SECTION
  2
HEADER
  9
$ACADVER
  1
AC1014
  9
$ACADMAINTVER
 70
     9
  9
$DWGCODEPAGE
  3
ANSI_1252
  9
$INSBASE
 10
0.0
 20
0.0
 30
0.0
  9
$EXTMIN
 10
1.000000000000000E+20
 20
1.000000000000000E+20
 30
1.000000000000000E+20
  9
$EXTMAX
 10
-1.000000000000000E+20
 20
-1.000000000000000E+20
 30
-1.000000000000000E+20
  9
$LIMMIN
 10
0.0
 20
0.0
  9
$LIMMAX
 10
420.0
 20
297.0
  9
$ORTHOMODE
 70
     0
  9
$REGENMODE
 70
     1
  9
$FILLMODE
 70
     1
  9
$QTEXTMODE
 70
     0
  9
$MIRRTEXT
 70
     1
  9
$DRAGMODE
 70
     2
  9
$LTSCALE
 40
12.7
  9
$OSMODE
 70
    23
  9
$ATTMODE
 70
     1
  9
$TEXTSIZE
 40
3.5
  9
$TRACEWID
 40
1.0
  9
$TEXTSTYLE
  7
ONSHAPE-STANDARD
  9
$CLAYER
  8
0
  9
$CELTYPE
  6
BYLAYER
  9
$CECOLOR
 62
   256
  9
$CELTSCALE
 40
1.0
  9
$DELOBJ
 70
     1
  9
$DISPSILH
 70
     0
  9
$DIMSCALE
 40
1.0
  9
$DIMASZ
 40
2.5
  9
$DIMEXO
 40
0.625
  9
$DIMDLI
 40
3.75
  9
$DIMRND
 40
0.0
  9
$DIMDLE
 40
0.0
  9
$DIMEXE
 40
1.25
  9
$DIMTP
 40
0.0
  9
$DIMTM
 40
0.0
  9
$DIMTXT
 40
3.5
  9
$DIMCEN
 40
2.5
  9
$DIMTSZ
 40
0.0
  9
$DIMTOL
 70
     0
  9
$DIMLIM
 70
     0
  9
$DIMTIH
 70
     0
  9
$DIMTOH
 70
     0
  9
$DIMSE1
 70
     0
  9
$DIMSE2
 70
     0
  9
$DIMTAD
 70
     1
  9
$DIMZIN
 70
     8
  9
$DIMBLK
  1

  9
$DIMASO
 70
     1
  9
$DIMSHO
 70
     1
  9
$DIMPOST
  1

  9
$DIMAPOST
  1

  9
$DIMALT
 70
     0
  9
$DIMALTD
 70
     3
  9
$DIMALTF
 40
0.03937
  9
$DIMLFAC
 40
1.0
  9
$DIMTOFL
 70
     1
  9
$DIMTVP
 40
0.0
  9
$DIMTIX
 70
     0
  9
$DIMSOXD
 70
     0
  9
$DIMSAH
 70
     0
  9
$DIMBLK1
  1

  9
$DIMBLK2
  1

  9
$DIMSTYLE
  2
ONSHAPE-ISO-25
  9
$DIMCLRD
 70
     7
  9
$DIMCLRE
 70
     7
  9
$DIMCLRT
 70
     7
  9
$DIMTFAC
 40
1.0
  9
$DIMGAP
 40
0.625
  9
$DIMJUST
 70
     0
  9
$DIMSD1
 70
     0
  9
$DIMSD2
 70
     0
  9
$DIMTOLJ
 70
     0
  9
$DIMTZIN
 70
     8
  9
$DIMALTZ
 70
     8
  9
$DIMALTTZ
 70
     0
  9
$DIMFIT
 70
     3
  9
$DIMUPT
 70
     1
  9
$DIMUNIT
 70
     2
  9
$DIMDEC
 70
     2
  9
$DIMTDEC
 70
     2
  9
$DIMALTU
 70
     2
  9
$DIMALTTD
 70
     3
  9
$DIMTXSTY
  7
ONSHAPE-STANDARD-DIMENSION
  9
$DIMAUNIT
 70
     0
  9
$LUNITS
 70
     2
  9
$LUPREC
 70
     4
  9
$SKETCHINC
 40
1.0
  9
$FILLETRAD
 40
10.0
  9
$AUNITS
 70
     0
  9
$AUPREC
 70
     0
  9
$MENU
  1
.
  9
$ELEVATION
 40
0.0
  9
$PELEVATION
 40
0.0
  9
$THICKNESS
 40
0.0
  9
$LIMCHECK
 70
     0
  9
$CHAMFERA
 40
0.0
  9
$CHAMFERB
 40
0.0
  9
$CHAMFERC
 40
0.0
  9
$CHAMFERD
 40
0.0
  9
$SKPOLY
 70
     0
  9
$TDCREATE
 40
2458799.640729155
  9
$TDUPDATE
 40
2458799.640729155
  9
$TDINDWG
 40
0.0
  9
$TDUSRTIMER
 40
0.0
  9
$USRTIMER
 70
     1
  9
$ANGBASE
 50
0.0
  9
$ANGDIR
 70
     0
  9
$PDMODE
 70
     0
  9
$PDSIZE
 40
0.0
  9
$PLINEWID
 40
0.0
  9
$COORDS
 70
     1
  9
$SPLFRAME
 70
     0
  9
$SPLINETYPE
 70
     6
  9
$SPLINESEGS
 70
     8
  9
$ATTDIA
 70
     0
  9
$ATTREQ
 70
     1
  9
$HANDLING
 70
     1
  9
$HANDSEED
  5
339
  9
$SURFTAB1
 70
     6
  9
$SURFTAB2
 70
     6
  9
$SURFTYPE
 70
     6
  9
$SURFU
 70
     6
  9
$SURFV
 70
     6
  9
$UCSNAME
  2

  9
$UCSORG
 10
0.0
 20
0.0
 30
0.0
  9
$UCSXDIR
 10
1.0
 20
0.0
 30
0.0
  9
$UCSYDIR
 10
0.0
 20
1.0
 30
0.0
  9
$PUCSNAME
  2

  9
$PUCSORG
 10
0.0
 20
0.0
 30
0.0
  9
$PUCSXDIR
 10
1.0
 20
0.0
 30
0.0
  9
$PUCSYDIR
 10
0.0
 20
1.0
 30
0.0
  9
$USERI1
 70
     0
  9
$USERI2
 70
     0
  9
$USERI3
 70
     0
  9
$USERI4
 70
     0
  9
$USERI5
 70
     0
  9
$USERR1
 40
0.0
  9
$USERR2
 40
0.0
  9
$USERR3
 40
0.0
  9
$USERR4
 40
0.0
  9
$USERR5
 40
0.0
  9
$WORLDVIEW
 70
     1
  9
$SHADEDGE
 70
     3
  9
$SHADEDIF
 70
    70
  9
$TILEMODE
 70
     1
  9
$MAXACTVP
 70
    64
  9
$PINSBASE
 10
0.0
 20
0.0
 30
0.0
  9
$PLIMCHECK
 70
     0
  9
$PEXTMIN
 10
1.000000000000000E+20
 20
1.000000000000000E+20
 30
1.000000000000000E+20
  9
$PEXTMAX
 10
-1.000000000000000E+20
 20
-1.000000000000000E+20
 30
-1.000000000000000E+20
  9
$PLIMMIN
 10
0.0
 20
0.0
  9
$PLIMMAX
 10
420.0
 20
297.0
  9
$UNITMODE
 70
     0
  9
$VISRETAIN
 70
     1
  9
$PLINEGEN
 70
     0
  9
$PSLTSCALE
 70
     1
  9
$TREEDEPTH
 70
  3020
  9
$PICKSTYLE
 70
     1
  9
$CMLSTYLE
  2
STANDARD
  9
$CMLJUST
 70
     0
  9
$CMLSCALE
 40
20.0
  9
$PROXYGRAPHICS
 70
     1
  9
$MEASUREMENT
 70
     1
  0
ENDSEC
  0
SECTION
  2
CLASSES
  0
CLASS
  1
ACDBDICTIONARYWDFLT
  2
AcDbDictionaryWithDefault
  3
ObjectDBX Classes
 90
        0
280
     0
281
     0
  0
CLASS
  1
VISUALSTYLE
  2
AcDbVisualStyle
  3
ObjectDBX Classes
 90
     4095
280
     0
281
     0
  0
CLASS
  1
MATERIAL
  2
AcDbMaterial
  3
ObjectDBX Classes
 90
     1153
280
     0
281
     0
  0
CLASS
  1
SCALE
  2
AcDbScale
  3
ObjectDBX Classes
 90
     1153
280
     0
281
     0
  0
CLASS
  1
SUN
  2
AcDbSun
  3
SCENEOE
 90
     1153
280
     0
281
     0
  0
CLASS
  1
TABLESTYLE
  2
AcDbTableStyle
  3
ObjectDBX Classes
 90
     4095
280
     0
281
     0
  0
CLASS
  1
DICTIONARYVAR
  2
AcDbDictionaryVar
  3
ObjectDBX Classes
 90
        0
280
     0
281
     0
  0
CLASS
  1
DIMASSOC
  2
AcDbDimAssoc
  3
"AcDbDimAssoc|Product Desc:     AcDim ARX App For Dimension|Company:          Autodesk, Inc.|WEB Address:      www.autodesk.com"
 90
        0
280
     0
281
     0
  0
CLASS
  1
XRECORD
  2
AcDbXrecord
  3
ObjectDBX Classes
 90
        0
280
     0
281
     0
  0
CLASS
  1
LWPOLYLINE
  2
AcDbPolyline
  3
ObjectDBX Classes
 90
        0
280
     0
281
     1
  0
CLASS
  1
HATCH
  2
AcDbHatch
  3
ObjectDBX Classes
 90
        0
280
     0
281
     1
  0
CLASS
  1
ACDBPLACEHOLDER
  2
AcDbPlaceHolder
  3
ObjectDBX Classes
 90
        0
280
     0
281
     0
  0
CLASS
  1
LAYOUT
  2
AcDbLayout
  3
ObjectDBX Classes
 90
        0
280
     0
281
     0
  0
ENDSEC
  0
SECTION
  2
TABLES
  0
TABLE
  2
VPORT
  5
8
330
0
100
AcDbSymbolTable
 70
     1
  0
VPORT
  5
29
330
8
100
AcDbSymbolTableRecord
100
AcDbViewportTableRecord
  2
*ACTIVE
 70
     0
 10
0.0
 20
0.0
 11
1.0
 21
1.0
 12
325.8594617100305
 22
201.8598612817751
 13
0.0
 23
0.0
 14
10.0
 24
10.0
 15
10.0
 25
10.0
 16
0.0
 26
0.0
 36
1.0
 17
0.0
 27
0.0
 37
0.0
 40
358.910102626863
 41
1.50867585039299
 42
50.0
 43
0.0
 44
0.0
 50
0.0
 51
0.0
 71
     0
 72
   100
 73
     1
 74
     3
 75
     0
 76
     0
 77
     0
 78
     0
  0
ENDTAB
  0
TABLE
  2
LTYPE
  5
5
330
0
100
AcDbSymbolTable
 70
     2
  0
LTYPE
  5
14
330
5
100
AcDbSymbolTableRecord
100
AcDbLinetypeTableRecord
  2
BYBLOCK
 70
     0
  3

 72
    65
 73
     0
 40
0.0
  0
LTYPE
  5
15
330
5
100
AcDbSymbolTableRecord
100
AcDbLinetypeTableRecord
  2
BYLAYER
 70
     0
  3

 72
    65
 73
     0
 40
0.0
  0
LTYPE
  5
16
330
5
100
AcDbSymbolTableRecord
100
AcDbLinetypeTableRecord
  2
CONTINUOUS
 70
     0
  3
Solid line
 72
    65
 73
     0
 40
0.0
  0
LTYPE
  5
2C9
330
5
100
AcDbSymbolTableRecord
100
AcDbLinetypeTableRecord
  2
CENTER
 70
     0
  3
 Center _____  _  _____  _  _____  _  _____  _ 
 72
    65
 73
     4
 40
50.8
 49
31.75
 74
     0
 49
-6.35
 74
     0
 49
6.35
 74
     0
 49
-6.35
 74
     0
  0
ENDTAB
  0
TABLE
  2
LAYER
  5
2
330
0
100
AcDbSymbolTable
 70
     6
  0
LAYER
  5
10
330
2
100
AcDbSymbolTableRecord
100
AcDbLayerTableRecord
  2
0
 70
     0
 62
     7
  6
CONTINUOUS
  0
LAYER
  5
6E
330
2
100
AcDbSymbolTableRecord
100
AcDbLayerTableRecord
  2
DEFPOINTS
 70
     0
 62
     7
  6
CONTINUOUS
  0
LAYER
  5
75
330
2
100
AcDbSymbolTableRecord
100
AcDbLayerTableRecord
  2
ANNOTATION_TEXT
 70
     0
 62
     7
  6
CONTINUOUS
  0
LAYER
  5
16D
330
2
100
AcDbSymbolTableRecord
100
AcDbLayerTableRecord
  2
VISIBLE
 70
     0
 62
     7
  6
CONTINUOUS
  0
LAYER
  5
18B
330
2
100
AcDbSymbolTableRecord
100
AcDbLayerTableRecord
  2
TANGENT_LINES
 70
     0
 62
     7
  6
CONTINUOUS
  0
LAYER
  5
2CA
330
2
100
AcDbSymbolTableRecord
100
AcDbLayerTableRecord
  2
SKETCHED_GEOMETRY
 70
     0
 62
     7
  6
CENTER
  0
ENDTAB
  0
TABLE
  2
STYLE
  5
3
330
0
100
AcDbSymbolTable
 70
    23
  0
STYLE
  5
11
330
3
100
AcDbSymbolTableRecord
100
AcDbTextStyleTableRecord
  2
STANDARD
 70
     0
 40
0.0
 41
1.0
 50
0.0
 71
     0
 42
3.5
  3
txt
  4

  0
STYLE
  5
6F
330
3
100
AcDbSymbolTableRecord
100
AcDbTextStyleTableRecord
  2
ONSHAPE-STANDARD
 70
     0
 40
0.0
 41
1.0
 50
0.0
 71
     0
 42
3.5
  3
NotoSans-Regular.ttf
  4

1001
ACAD
1000
Noto Sans
1071
        0
  0
STYLE
  5
71
330
3
100
AcDbSymbolTableRecord
100
AcDbTextStyleTableRecord
  2
ONSHAPE-STANDARD-DIMENSION
 70
     0
 40
0.0
 41
1.0
 50
0.0
 71
     0
 42
3.5
  3

  4

1001
ACAD
1000
Noto Sans
1071
        0
  0
STYLE
  5
77
330
3
100
AcDbSymbolTableRecord
100
AcDbTextStyleTableRecord
  2
ONSHAPE-STANDARD-VIEW-LABE
 70
     0
 40
3.5
 41
1.0
 50
0.0
 71
     0
 42
3.5
  3
NotoSans-Regular.ttf
  4

1001
ACAD
1000
Noto Sans
1071
        0
  0
STYLE
  5
2D2
330
3
100
AcDbSymbolTableRecord
100
AcDbTextStyleTableRecord
  2
ONSHAPE-STANDARD-BOLD
 70
     0
 40
0.0
 41
1.0
 50
0.0
 71
     0
 42
3.5
  3
NotoSans-Bold.ttf
  4

1001
ACAD
1000
Noto Sans
1071
 33554432
  0
STYLE
  5
2D3
330
3
100
AcDbSymbolTableRecord
100
AcDbTextStyleTableRecord
  2
ONSHAPE-STANDARD-FIELDS
 70
     0
 40
0.0
 41
1.0
 50
0.0
 71
     0
 42
3.5
  3

  4

1001
ACAD
1000
Noto Sans
1071
        0
  0
STYLE
  5
2D4
330
3
100
AcDbSymbolTableRecord
100
AcDbTextStyleTableRecord
  2
ONSHAPE-STANDARD-TCFIELDS
 70
     0
 40
0.0
 41
1.0
 50
0.0
 71
     0
 42
3.5
  3
NotoSansTC-Regular.otf
  4

1001
ACAD
1000
Noto Sans TC
1071
        0
  0
STYLE
  5
2D5
330
3
100
AcDbSymbolTableRecord
100
AcDbTextStyleTableRecord
  2
ONSHAPE-STANDARD-SCFIELDS
 70
     0
 40
0.0
 41
1.0
 50
0.0
 71
     0
 42
3.5
  3
NotoSansSC-Regular.otf
  4

1001
ACAD
1000
Noto Sans SC
1071
        0
  0
STYLE
  5
2D6
330
3
100
AcDbSymbolTableRecord
100
AcDbTextStyleTableRecord
  2
ONSHAPE-STANDARD-KOREANFIE
 70
     0
 40
0.0
 41
1.0
 50
0.0
 71
     0
 42
3.5
  3
NotoSansKR-Regular.otf
  4

1001
ACAD
1000
Noto Sans KR
1071
        0
  0
STYLE
  5
2D8
330
3
100
AcDbSymbolTableRecord
100
AcDbTextStyleTableRecord
  2
TTFSTYLE
 70
     0
 40
0.0
 41
1.0
 50
0.0
 71
     0
 42
3.5
  3
Verdana.ttf
  4

1001
ACAD
1000
Verdana
1071
       34
  0
STYLE
  5
2D9
330
3
100
AcDbSymbolTableRecord
100
AcDbTextStyleTableRecord
  2
ONSHAPE-STANDARD-GTOLERANC
 70
     0
 40
0.0
 41
1.0
 50
0.0
 71
     0
 42
3.5
  3

  4

1001
ACAD
1000
Noto Sans
1071
        0
  0
STYLE
  5
2DA
330
3
100
AcDbSymbolTableRecord
100
AcDbTextStyleTableRecord
  2
ONSHAPE-STANDARD-TABLE-DAT
 70
     0
 40
0.0
 41
1.0
 50
0.0
 71
     0
 42
3.5
  3
NotoSans-Regular.ttf
  4

1001
ACAD
1000
Noto Sans
1071
        0
  0
STYLE
  5
2DB
330
3
100
AcDbSymbolTableRecord
100
AcDbTextStyleTableRecord
  2
ONSHAPE-STANDARD-TABLE-TIT
 70
     0
 40
0.0
 41
1.0
 50
0.0
 71
     0
 42
3.5
  3
NotoSans-Bold.ttf
  4

1001
ACAD
1000
Noto Sans
1071
 33554432
  0
STYLE
  5
2DC
330
3
100
AcDbSymbolTableRecord
100
AcDbTextStyleTableRecord
  2
ONSHAPE-STANDARD-TABLE-HEA
 70
     0
 40
0.0
 41
1.0
 50
0.0
 71
     0
 42
3.5
  3
NotoSans-Bold.ttf
  4

1001
ACAD
1000
Noto Sans
1071
 33554432
  0
STYLE
  5
2DD
330
3
100
AcDbSymbolTableRecord
100
AcDbTextStyleTableRecord
  2
ONSHAPE-STANDARD-BOMTABLE-
 70
     0
 40
0.0
 41
1.0
 50
0.0
 71
     0
 42
3.5
  3
NotoSans-Regular.ttf
  4

1001
ACAD
1000
Noto Sans
1071
        0
  0
STYLE
  5
2DE
330
3
100
AcDbSymbolTableRecord
100
AcDbTextStyleTableRecord
  2
ONSHAPE-STANDARD-BOMTABLE0
 70
     0
 40
0.0
 41
1.0
 50
0.0
 71
     0
 42
3.5
  3
NotoSans-Bold.ttf
  4

1001
ACAD
1000
Noto Sans
1071
 33554432
  0
STYLE
  5
2DF
330
3
100
AcDbSymbolTableRecord
100
AcDbTextStyleTableRecord
  2
ONSHAPE-STANDARD-BOMTABLE1
 70
     0
 40
0.0
 41
1.0
 50
0.0
 71
     0
 42
3.5
  3
NotoSans-Bold.ttf
  4

1001
ACAD
1000
Noto Sans
1071
 33554432
  0
STYLE
  5
2E0
330
3
100
AcDbSymbolTableRecord
100
AcDbTextStyleTableRecord
  2
ONSHAPE-STANDARD-NOTESTYLE
 70
     0
 40
3.5
 41
1.0
 50
0.0
 71
     0
 42
3.5
  3
Noto Sans
  4

1001
ACAD
1000
Noto Sans
1071
        0
  0
STYLE
  5
2E2
330
3
100
AcDbSymbolTableRecord
100
AcDbTextStyleTableRecord
  2
ONSHAPE-STANDARD-HOLE-CALL
 70
     0
 40
3.5
 41
1.0
 50
0.0
 71
     0
 42
3.5
  3
Noto Sans
  4

1001
ACAD
1000
Noto Sans
1071
        0
  0
STYLE
  5
2E3
330
3
100
AcDbSymbolTableRecord
100
AcDbTextStyleTableRecord
  2
ONSHAPE-STANDARD-HOLETABLE
 70
     0
 40
0.0
 41
1.0
 50
0.0
 71
     0
 42
3.5
  3
NotoSans-Regular.ttf
  4

1001
ACAD
1000
Noto Sans
1071
        0
  0
STYLE
  5
2E4
330
3
100
AcDbSymbolTableRecord
100
AcDbTextStyleTableRecord
  2
ONSHAPE-STANDARD-HOLETABL0
 70
     0
 40
0.0
 41
1.0
 50
0.0
 71
     0
 42
3.5
  3
NotoSans-Bold.ttf
  4

1001
ACAD
1000
Noto Sans
1071
 33554432
  0
STYLE
  5
2E5
330
3
100
AcDbSymbolTableRecord
100
AcDbTextStyleTableRecord
  2
ONSHAPE-STANDARD-HOLETABL1
 70
     0
 40
0.0
 41
1.0
 50
0.0
 71
     0
 42
3.5
  3
NotoSans-Bold.ttf
  4

1001
ACAD
1000
Noto Sans
1071
 33554432
  0
STYLE
  5
2E6
330
3
100
AcDbSymbolTableRecord
100
AcDbTextStyleTableRecord
  2
ONSHAPE-STANDARD-HOLE-TAG
 70
     0
 40
3.5
 41
1.0
 50
0.0
 71
     0
 42
3.5
  3
Noto Sans
  4

1001
ACAD
1000
Noto Sans
1071
        0
  0
ENDTAB
  0
TABLE
  2
VIEW
  5
6
330
0
100
AcDbSymbolTable
 70
     0
  0
ENDTAB
  0
TABLE
  2
UCS
  5
7
330
0
100
AcDbSymbolTable
 70
     0
  0
ENDTAB
  0
TABLE
  2
APPID
  5
9
330
0
100
AcDbSymbolTable
 70
     5
  0
APPID
  5
12
330
9
100
AcDbSymbolTableRecord
100
AcDbRegAppTableRecord
  2
ACAD
 70
     0
  0
APPID
  5
9E
330
9
100
AcDbSymbolTableRecord
100
AcDbRegAppTableRecord
  2
ACAD_DIMASSOC_CALC_DIMLFAC
 70
     0
  0
APPID
  5
9F
330
9
100
AcDbSymbolTableRecord
100
AcDbRegAppTableRecord
  2
ACAD_DIMASSOC_DIMLFAC
 70
     0
  0
APPID
  5
A0
330
9
100
AcDbSymbolTableRecord
100
AcDbRegAppTableRecord
  2
ACAD_DIMASSOC_OVERRIDDEN_D
 70
     0
  0
APPID
  5
E4
330
9
100
AcDbSymbolTableRecord
100
AcDbRegAppTableRecord
  2
ACAD_DSTYLE_DIMRADIAL_EXTE
 70
     0
  0
ENDTAB
  0
TABLE
  2
DIMSTYLE
  5
A
330
0
100
AcDbSymbolTable
 70
    17
  0
DIMSTYLE
105
27
330
A
100
AcDbSymbolTableRecord
100
AcDbDimStyleTableRecord
  2
ISO-25
 70
     0
  3

  4

  5

  6

  7

 40
1.0
 41
2.5
 42
0.625
 43
3.75
 44
1.25
 45
0.0
 46
0.0
 47
0.0
 48
0.0
140
2.5
141
2.5
142
0.0
143
0.03937007874016
144
1.0
145
0.0
146
1.0
147
0.625
 71
     0
 72
     0
 73
     0
 74
     0
 75
     0
 76
     0
 77
     1
 78
     8
170
     0
171
     3
172
     1
173
     0
174
     0
175
     0
176
     0
177
     0
178
     0
270
     2
271
     2
272
     2
273
     2
274
     3
340
11
275
     0
280
     0
281
     0
282
     0
283
     0
284
     8
285
     0
286
     0
287
     3
288
     0
  0
DIMSTYLE
105
70
330
A
100
AcDbSymbolTableRecord
100
AcDbDimStyleTableRecord
  2
ONSHAPE-ISO-25
 70
     0
  3

  4

  5

  6

  7

 40
1.0
 41
2.5
 42
0.625
 43
3.75
 44
1.25
 45
0.0
 46
0.0
 47
0.0
 48
0.0
140
3.5
141
2.5
142
0.0
143
0.03937
144
1.0
145
0.0
146
1.0
147
0.625
 71
     0
 72
     0
 73
     0
 74
     0
 75
     0
 76
     0
 77
     1
 78
     8
170
     0
171
     3
172
     1
173
     0
174
     0
175
     0
176
     7
177
     7
178
     7
179
     1
270
     2
271
     2
272
     2
273
     2
274
     3
340
71
275
     0
280
     0
281
     0
282
     0
283
     0
284
     8
285
     8
286
     0
287
     3
288
     1
  0
DIMSTYLE
105
8D
102
{ACAD_REACTORS
330
88
330
A1
330
B2
330
C3
330
F5
330
109
330
11A
330
13A
330
14B
330
15C
102
}
330
A
100
AcDbSymbolTableRecord
100
AcDbDimStyleTableRecord
  2
ONSHAPE-ISO-25$0
 70
     0
  3

  4

  5

  6

  7

 40
1.0
 41
2.5
 42
0.625
 43
3.75
 44
1.25
 45
0.0
 46
0.0
 47
0.0
 48
0.0
140
3.5
141
2.5
142
0.0
143
0.03937
144
1.0
145
0.0
146
1.0
147
0.625
 71
     0
 72
     0
 73
     0
 74
     0
 75
     0
 76
     0
 77
     1
 78
     8
170
     0
171
     3
172
     1
173
     0
174
     0
175
     0
176
     7
177
     7
178
     7
179
     1
270
     2
271
     2
272
     2
273
     2
274
     3
340
71
275
     0
280
     0
281
     0
282
     0
283
     0
284
     8
285
     8
286
     0
287
     3
288
     1
  0
DIMSTYLE
105
D8
102
{ACAD_REACTORS
330
D4
330
E5
330
12B
102
}
330
A
100
AcDbSymbolTableRecord
100
AcDbDimStyleTableRecord
  2
ONSHAPE-ISO-25$3
 70
     0
  3

  4

  5

  6

  7

 40
1.0
 41
2.5
 42
0.625
 43
3.75
 44
1.25
 45
0.0
 46
0.0
 47
0.0
 48
0.0
140
3.5
141
0.0
142
0.0
143
0.03937
144
1.0
145
0.0
146
1.0
147
0.625
 71
     0
 72
     0
 73
     0
 74
     0
 75
     0
 76
     0
 77
     1
 78
     8
170
     0
171
     3
172
     1
173
     0
174
     0
175
     0
176
     7
177
     7
178
     7
179
     1
270
     2
271
     2
272
     2
273
     2
274
     3
340
71
275
     0
280
     0
281
     0
282
     0
283
     0
284
     8
285
     8
286
     0
287
     3
288
     1
  0
DIMSTYLE
105
2E9
330
A
100
AcDbSymbolTableRecord
100
AcDbDimStyleTableRecord
  2
ISO
 70
     0
  3

  4
"
  5

  6

  7

 40
1.0
 41
3.5
 42
1.0
 43
10.0
 44
1.0
 45
0.0
 46
0.0
 47
0.1
 48
0.1
140
3.5
141
0.0
142
0.0
143
0.03937
144
1.0
145
0.0
146
0.71
147
1.5
 71
     0
 72
     0
 73
     0
 74
     0
 75
     0
 76
     0
 77
     1
 78
     8
170
     0
171
     3
172
     1
173
     0
174
     0
175
     0
176
     7
177
     7
178
     7
270
     2
271
     2
272
     3
273
     2
274
     3
340
11
275
     0
280
     0
281
     0
282
     0
283
     0
284
     8
285
     8
286
     0
287
     3
288
     1
  0
DIMSTYLE
105
2EA
330
A
100
AcDbSymbolTableRecord
100
AcDbDimStyleTableRecord
  2
ISO$3
 70
     0
  3

  4
"
  5

  6

  7

 40
1.0
 41
3.5
 42
1.0
 43
10.0
 44
1.0
 45
0.0
 46
0.0
 47
0.1
 48
0.1
140
3.5
141
0.0
142
0.0
143
0.03937
144
1.0
145
0.0
146
0.71
147
1.5
 71
     0
 72
     0
 73
     0
 74
     1
 75
     0
 76
     0
 77
     1
 78
     8
170
     0
171
     3
172
     0
173
     0
174
     0
175
     0
176
     7
177
     7
178
     7
270
     2
271
     2
272
     3
273
     2
274
     3
340
11
275
     0
280
     0
281
     0
282
     0
283
     0
284
     8
285
     8
286
     0
288
     1
  0
DIMSTYLE
105
2EB
330
A
100
AcDbSymbolTableRecord
100
AcDbDimStyleTableRecord
  2
ISO$4
 70
     0
  3

  4
"
  5

  6

  7

 40
1.0
 41
3.5
 42
1.0
 43
10.0
 44
1.0
 45
0.0
 46
0.0
 47
0.1
 48
0.1
140
3.5
141
0.0
142
0.0
143
0.03937
144
1.0
145
0.0
146
0.71
147
1.5
 71
     0
 72
     0
 73
     0
 74
     0
 75
     0
 76
     0
 77
     1
 78
     8
170
     0
171
     3
172
     1
173
     0
174
     0
175
     0
176
     7
177
     7
178
     7
270
     2
271
     2
272
     3
273
     2
274
     3
340
11
275
     0
280
     0
281
     0
282
     0
283
     0
284
     8
285
     8
286
     0
287
     3
288
     1
  0
DIMSTYLE
105
2EC
330
A
100
AcDbSymbolTableRecord
100
AcDbDimStyleTableRecord
  2
ISO$6
 70
     0
  3

  4
"
  5

  6

  7

 40
1.0
 41
0.5
 42
1.0
 43
10.0
 44
1.0
 45
0.0
 46
0.0
 47
0.1
 48
0.1
140
3.5
141
0.0
142
0.0
143
0.03937
144
1.0
145
0.0
146
0.71
147
1.5
 71
     0
 72
     0
 73
     0
 74
     0
 75
     0
 76
     0
 77
     0
 78
     8
170
     0
171
     3
172
     1
173
     0
174
     0
175
     0
176
     7
177
     7
178
     7
270
     2
271
     2
272
     3
273
     2
274
     3
340
11
275
     0
280
     0
281
     0
282
     0
283
     0
284
     8
285
     8
286
     0
287
     3
288
     1
  0
DIMSTYLE
105
2ED
330
A
100
AcDbSymbolTableRecord
100
AcDbDimStyleTableRecord
  2
ISO$7
 70
     0
  3

  4
"
  5

  6

  7

 40
1.0
 41
3.5
 42
1.0
 43
10.0
 44
1.0
 45
0.0
 46
0.0
 47
0.1
 48
0.1
140
3.5
141
0.0
142
0.0
143
0.03937
144
1.0
145
0.0
146
0.71
147
1.5
 71
     0
 72
     0
 73
     0
 74
     0
 75
     0
 76
     0
 77
     1
 78
     8
170
     0
171
     3
172
     1
173
     0
174
     0
175
     0
176
     7
177
     7
178
     7
270
     2
271
     2
272
     3
273
     2
274
     3
340
11
275
     0
280
     0
281
     0
282
     0
283
     0
284
     8
285
     8
286
     0
287
     3
288
     1
  0
DIMSTYLE
105
2EE
330
A
100
AcDbSymbolTableRecord
100
AcDbDimStyleTableRecord
  2
ISO$SF
 70
     0
  3

  4
"
  5

  6

  7

 40
1.0
 41
3.5
 42
1.0
 43
10.0
 44
1.0
 45
0.0
 46
0.0
 47
0.1
 48
0.1
140
3.5
141
0.0
142
0.0
143
0.03937
144
1.0
145
0.0
146
0.71
147
1.5
 71
     0
 72
     0
 73
     0
 74
     0
 75
     1
 76
     1
 77
     1
 78
     8
170
     0
171
     3
172
     1
173
     0
174
     0
175
     0
176
     7
177
     7
178
     7
270
     2
271
     2
272
     3
273
     2
274
     3
340
11
275
     0
280
     0
281
     0
282
     0
283
     0
284
     8
285
     8
286
     0
287
     3
288
     1
  0
DIMSTYLE
105
2EF
330
A
100
AcDbSymbolTableRecord
100
AcDbDimStyleTableRecord
  2
ISO$SH
 70
     0
  3

  4
"
  5

  6

  7

 40
1.0
 41
3.5
 42
1.0
 43
10.0
 44
1.0
 45
0.0
 46
0.0
 47
0.1
 48
0.1
140
3.5
141
0.0
142
0.0
143
0.03937
144
2.0
145
0.0
146
0.71
147
1.5
 71
     0
 72
     0
 73
     0
 74
     0
 75
     1
 76
     1
 77
     1
 78
     8
170
     0
171
     3
172
     1
173
     1
174
     0
175
     0
176
     7
177
     7
178
     7
270
     2
271
     2
272
     3
273
     2
274
     3
340
11
275
     0
280
     0
281
     0
282
     0
283
     0
284
     8
285
     8
286
     0
287
     3
288
     1
  0
DIMSTYLE
105
2F3
330
A
100
AcDbSymbolTableRecord
100
AcDbDimStyleTableRecord
  2
ONSHAPE-ISO-25$2
 70
     0
  3

  4

  5

  6

  7

 40
1.0
 41
2.5
 42
0.625
 43
3.75
 44
1.25
 45
0.0
 46
0.0
 47
0.0
 48
0.0
140
3.5
141
2.5
142
0.0
143
0.03937
144
1.0
145
0.0
146
1.0
147
0.625
 71
     0
 72
     0
 73
     0
 74
     0
 75
     0
 76
     0
 77
     1
 78
     8
170
     0
171
     3
172
     1
173
     0
174
     0
175
     0
176
     7
177
     7
178
     7
179
     1
270
     2
271
     2
272
     2
273
     2
274
     3
340
71
275
     0
280
     0
281
     0
282
     0
283
     0
284
     8
285
     8
286
     0
287
     3
288
     1
  0
DIMSTYLE
105
2F5
330
A
100
AcDbSymbolTableRecord
100
AcDbDimStyleTableRecord
  2
ONSHAPE-ISO-25$4
 70
     0
  3

  4

  5

  6

  7

 40
1.0
 41
2.5
 42
0.625
 43
3.75
 44
1.25
 45
0.0
 46
0.0
 47
0.0
 48
0.0
140
3.5
141
0.0
142
0.0
143
0.03937
144
1.0
145
0.0
146
1.0
147
0.625
 71
     0
 72
     0
 73
     0
 74
     0
 75
     0
 76
     0
 77
     1
 78
     8
170
     0
171
     3
172
     1
173
     0
174
     0
175
     0
176
     7
177
     7
178
     7
179
     1
270
     2
271
     2
272
     2
273
     2
274
     3
340
71
275
     0
280
     0
281
     0
282
     0
283
     0
284
     8
285
     8
286
     0
287
     3
288
     1
  0
DIMSTYLE
105
2F6
330
A
100
AcDbSymbolTableRecord
100
AcDbDimStyleTableRecord
  2
ONSHAPE-ISO-25$6
 70
     0
  3

  4

  5

  6

  7

 40
1.0
 41
0.5
 42
0.625
 43
3.75
 44
1.25
 45
0.0
 46
0.0
 47
0.0
 48
0.0
140
3.5
141
2.5
142
0.0
143
0.03937
144
1.0
145
0.0
146
1.0
147
0.625
 71
     0
 72
     0
 73
     0
 74
     0
 75
     0
 76
     0
 77
     1
 78
     8
170
     0
171
     3
172
     1
173
     0
174
     0
175
     0
176
     7
177
     7
178
     7
179
     1
270
     2
271
     2
272
     2
273
     2
274
     3
340
71
275
     0
280
     0
281
     0
282
     0
283
     0
284
     8
285
     8
286
     0
287
     3
288
     1
  0
DIMSTYLE
105
2F7
330
A
100
AcDbSymbolTableRecord
100
AcDbDimStyleTableRecord
  2
ONSHAPE-ISO-25$7
 70
     0
  3

  4

  5

  6

  7

 40
1.0
 41
2.5
 42
0.625
 43
3.75
 44
1.25
 45
0.0
 46
0.0
 47
0.0
 48
0.0
140
3.5
141
2.5
142
0.0
143
0.03937
144
1.0
145
0.0
146
1.0
147
0.625
 71
     0
 72
     0
 73
     0
 74
     0
 75
     0
 76
     0
 77
     1
 78
     8
170
     0
171
     3
172
     1
173
     0
174
     0
175
     0
176
     7
177
     7
178
     7
179
     1
270
     2
271
     2
272
     2
273
     2
274
     3
340
71
275
     0
280
     0
281
     0
282
     0
283
     0
284
     8
285
     8
286
     0
287
     3
288
     1
  0
DIMSTYLE
105
2F8
330
A
100
AcDbSymbolTableRecord
100
AcDbDimStyleTableRecord
  2
ONSHAPE-STANDARD-GTOLERANC
 70
     0
  3

  4

  5

  6

  7

 40
1.0
 41
2.5
 42
0.625
 43
3.75
 44
1.25
 45
0.0
 46
0.0
 47
0.0
 48
0.0
140
3.5
141
2.5
142
0.0
143
0.03937
144
1.0
145
0.0
146
1.0
147
0.625
 71
     0
 72
     0
 73
     0
 74
     0
 75
     0
 76
     0
 77
     1
 78
     8
170
     0
171
     3
172
     1
173
     0
174
     0
175
     0
176
     7
177
     7
178
     7
179
     1
270
     2
271
     2
272
     2
273
     2
274
     3
340
2D9
275
     0
280
     0
281
     0
282
     0
283
     0
284
     8
285
     8
286
     0
287
     3
288
     1
  0
DIMSTYLE
105
2FA
330
A
100
AcDbSymbolTableRecord
100
AcDbDimStyleTableRecord
  2
ONSHAPE-ORDINATESTYLE
 70
     0
  3

  4

  5

  6

  7

 40
1.0
 41
2.5
 42
0.625
 43
3.75
 44
1.25
 45
0.0
 46
0.0
 47
0.0
 48
0.0
140
3.5
141
2.5
142
0.0
143
0.03937
144
1.0
145
0.0
146
1.0
147
0.625
 71
     0
 72
     0
 73
     0
 74
     0
 75
     0
 76
     0
 77
     1
 78
     8
170
     0
171
     3
172
     1
173
     0
174
     0
175
     0
176
     7
177
     7
178
     7
179
     1
270
     2
271
     2
272
     2
273
     2
274
     3
340
71
275
     0
280
     0
281
     0
282
     0
283
     0
284
     8
285
     8
286
     0
287
     3
288
     1
  0
ENDTAB
  0
TABLE
  2
BLOCK_RECORD
  5
1
330
0
100
AcDbSymbolTable
 70
    14
  0
BLOCK_RECORD
  5
1F
330
1
100
AcDbSymbolTableRecord
100
AcDbBlockTableRecord
  2
*MODEL_SPACE
  0
BLOCK_RECORD
  5
1B
330
1
100
AcDbSymbolTableRecord
100
AcDbBlockTableRecord
  2
*PAPER_SPACE
  0
BLOCK_RECORD
  5
8F
330
1
100
AcDbSymbolTableRecord
100
AcDbBlockTableRecord
  2
*D1
  0
BLOCK_RECORD
  5
A6
330
1
100
AcDbSymbolTableRecord
100
AcDbBlockTableRecord
  2
*D2
  0
BLOCK_RECORD
  5
B7
330
1
100
AcDbSymbolTableRecord
100
AcDbBlockTableRecord
  2
*D3
  0
BLOCK_RECORD
  5
C8
330
1
100
AcDbSymbolTableRecord
100
AcDbBlockTableRecord
  2
*D4
  0
BLOCK_RECORD
  5
D9
330
1
100
AcDbSymbolTableRecord
100
AcDbBlockTableRecord
  2
*D5
  0
BLOCK_RECORD
  5
E9
330
1
100
AcDbSymbolTableRecord
100
AcDbBlockTableRecord
  2
*D6
  0
BLOCK_RECORD
  5
FA
330
1
100
AcDbSymbolTableRecord
100
AcDbBlockTableRecord
  2
*D7
  0
BLOCK_RECORD
  5
10E
330
1
100
AcDbSymbolTableRecord
100
AcDbBlockTableRecord
  2
*D8
  0
BLOCK_RECORD
  5
11F
330
1
100
AcDbSymbolTableRecord
100
AcDbBlockTableRecord
  2
*D9
  0
BLOCK_RECORD
  5
12F
330
1
100
AcDbSymbolTableRecord
100
AcDbBlockTableRecord
  2
*D10
  0
BLOCK_RECORD
  5
13F
330
1
100
AcDbSymbolTableRecord
100
AcDbBlockTableRecord
  2
*D11
  0
BLOCK_RECORD
  5
150
330
1
100
AcDbSymbolTableRecord
100
AcDbBlockTableRecord
  2
*D12
  0
BLOCK_RECORD
  5
161
330
1
100
AcDbSymbolTableRecord
100
AcDbBlockTableRecord
  2
*D13
  0
ENDTAB
  0
ENDSEC
  0
SECTION
  2
BLOCKS
  0
BLOCK
  5
20
330
1F
100
AcDbEntity
  8
0
100
AcDbBlockBegin
  2
*MODEL_SPACE
 70
     0
 10
0.0
 20
0.0
 30
0.0
  3
*MODEL_SPACE
  1

  0
ENDBLK
  5
21
330
1F
100
AcDbEntity
  8
0
100
AcDbBlockEnd
  0
BLOCK
  5
1C
330
1B
100
AcDbEntity
 67
     1
  8
0
100
AcDbBlockBegin
  2
*PAPER_SPACE
 70
     0
 10
0.0
 20
0.0
 30
0.0
  3
*PAPER_SPACE
  1

  0
ENDBLK
  5
1D
330
1B
100
AcDbEntity
 67
     1
  8
0
100
AcDbBlockEnd
  0
BLOCK
  5
90
330
8F
100
AcDbEntity
  8
0
100
AcDbBlockBegin
  2
*D1
 70
     1
 10
0.0
 20
0.0
 30
0.0
  3
*D1
  1
*D1
  0
LINE
  5
91
330
8F
100
AcDbEntity
  8
ANNOTATION_TEXT
 62
     7
100
AcDbLine
 10
76.55796417257119
 20
151.8167354246161
 30
0.0
 11
76.55796417257119
 21
185.9248416849318
 31
0.0
  0
LINE
  5
92
330
8F
100
AcDbEntity
  8
ANNOTATION_TEXT
 62
     7
100
AcDbLine
 10
78.9879641725712
 20
178.8167354246161
 30
0.0
 11
78.9879641725712
 21
185.9248416849318
 31
0.0
  0
LINE
  5
93
330
8F
100
AcDbEntity
  8
ANNOTATION_TEXT
 62
     7
100
AcDbLine
 10
76.55796417257119
 20
184.6748416849318
 30
0.0
 11
61.13357725159025
 21
184.6748416849318
 31
0.0
  0
LINE
  5
94
330
8F
100
AcDbEntity
  8
ANNOTATION_TEXT
 62
     7
100
AcDbLine
 10
76.55796417257119
 20
184.6748416849318
 30
0.0
 11
78.9879641725712
 21
184.6748416849318
 31
0.0
  0
LINE
  5
95
330
8F
100
AcDbEntity
  8
ANNOTATION_TEXT
 62
     7
100
AcDbLine
 10
74.05796417257119
 20
184.6748416849318
 30
0.0
 11
71.55796417257119
 21
184.6748416849318
 31
0.0
  0
LINE
  5
96
330
8F
100
AcDbEntity
  8
ANNOTATION_TEXT
 62
     7
100
AcDbLine
 10
81.4879641725712
 20
184.6748416849318
 30
0.0
 11
83.9879641725712
 21
184.6748416849318
 31
0.0
  0
SOLID
  5
97
330
8F
100
AcDbEntity
  8
ANNOTATION_TEXT
 62
     7
100
AcDbTrace
 10
74.05796417257119
 20
184.2581750182652
 30
0.0
 11
74.05796417257119
 21
185.0915083515985
 31
0.0
 12
76.55796417257119
 22
184.6748416849318
 32
0.0
 13
76.55796417257119
 23
184.6748416849318
 33
0.0
  0
SOLID
  5
98
330
8F
100
AcDbEntity
  8
ANNOTATION_TEXT
 62
     7
100
AcDbTrace
 10
81.4879641725712
 20
185.0915083515985
 30
0.0
 11
81.4879641725712
 21
184.2581750182652
 31
0.0
 12
78.9879641725712
 22
184.6748416849318
 32
0.0
 13
78.9879641725712
 23
184.6748416849318
 33
0.0
  0
MTEXT
  5
99
330
8F
100
AcDbEntity
  8
ANNOTATION_TEXT
 62
     7
100
AcDbMText
 10
66.34577071208072
 20
187.3824370527792
 30
0.0
 40
3.5
 41
0.0
 71
     5
 72
     1
  1
2,43
  7
ONSHAPE-STANDARD-DIMENSION
  0
POINT
  5
9A
330
8F
100
AcDbEntity
  8
DEFPOINTS
 62
     0
100
AcDbPoint
 10
76.55796417257119
 20
151.1917354246161
 30
0.0
  0
POINT
  5
9B
330
8F
100
AcDbEntity
  8
DEFPOINTS
 62
     0
100
AcDbPoint
 10
78.9879641725712
 20
178.1917354246161
 30
0.0
  0
POINT
  5
9C
330
8F
100
AcDbEntity
  8
DEFPOINTS
 62
     0
100
AcDbPoint
 10
78.9879641725712
 20
184.6748416849318
 30
0.0
  0
ENDBLK
  5
9D
330
8F
100
AcDbEntity
  8
0
100
AcDbBlockEnd
  0
BLOCK
  5
A7
330
A6
100
AcDbEntity
  8
0
100
AcDbBlockBegin
  2
*D2
 70
     1
 10
0.0
 20
0.0
 30
0.0
  3
*D2
  1
*D2
  0
LINE
  5
A8
330
A6
100
AcDbEntity
  8
ANNOTATION_TEXT
 62
     7
100
AcDbLine
 10
432.6559878409221
 20
359.9224785746644
 30
0.0
 11
459.1908749805987
 21
359.9224785746644
 31
0.0
  0
LINE
  5
A9
330
A6
100
AcDbEntity
  8
ANNOTATION_TEXT
 62
     7
100
AcDbLine
 10
432.6559878409221
 20
272.4834882790995
 30
0.0
 11
459.1908749805987
 21
272.4834882790995
 31
0.0
  0
LINE
  5
AA
330
A6
100
AcDbEntity
  8
ANNOTATION_TEXT
 62
     7
100
AcDbLine
 10
457.9408749805987
 20
357.4224785746644
 30
0.0
 11
457.9408749805987
 21
274.9834882790995
 31
0.0
  0
SOLID
  5
AB
330
A6
100
AcDbEntity
  8
ANNOTATION_TEXT
 62
     7
100
AcDbTrace
 10
458.3575416472654
 20
357.4224785746644
 30
0.0
 11
457.524208313932
 21
357.4224785746644
 31
0.0
 12
457.9408749805987
 22
359.9224785746644
 32
0.0
 13
457.9408749805987
 23
359.9224785746644
 33
0.0
  0
SOLID
  5
AC
330
A6
100
AcDbEntity
  8
ANNOTATION_TEXT
 62
     7
100
AcDbTrace
 10
457.524208313932
 20
274.9834882790995
 30
0.0
 11
458.3575416472654
 21
274.9834882790995
 31
0.0
 12
457.9408749805987
 22
272.4834882790995
 32
0.0
 13
457.9408749805987
 23
272.4834882790995
 33
0.0
  0
MTEXT
  5
AD
330
A6
100
AcDbEntity
  8
ANNOTATION_TEXT
 62
     7
100
AcDbMText
 10
455.2332796127512
 20
316.2029834268819
 30
0.0
 40
3.5
 41
0.0
 71
     5
 72
     1
  1
87,44
  7
ONSHAPE-STANDARD-DIMENSION
 11
0.0
 21
1.0
 31
0.0
  0
POINT
  5
AE
330
A6
100
AcDbEntity
  8
DEFPOINTS
 62
     0
100
AcDbPoint
 10
432.0309878409221
 20
359.9224785746644
 30
0.0
  0
POINT
  5
AF
330
A6
100
AcDbEntity
  8
DEFPOINTS
 62
     0
100
AcDbPoint
 10
432.0309878409221
 20
272.4834882790995
 30
0.0
  0
POINT
  5
B0
330
A6
100
AcDbEntity
  8
DEFPOINTS
 62
     0
100
AcDbPoint
 10
457.9408749805987
 20
272.4834882790995
 30
0.0
  0
ENDBLK
  5
B1
330
A6
100
AcDbEntity
  8
0
100
AcDbBlockEnd
  0
BLOCK
  5
B8
330
B7
100
AcDbEntity
  8
0
100
AcDbBlockBegin
  2
*D3
 70
     1
 10
0.0
 20
0.0
 30
0.0
  3
*D3
  1
*D3
  0
LINE
  5
B9
330
B7
100
AcDbEntity
  8
ANNOTATION_TEXT
 62
     7
100
AcDbLine
 10
81.37908983999728
 20
271.8584882790995
 30
0.0
 11
81.37908983999728
 21
255.3023170343256
 31
0.0
  0
LINE
  5
BA
330
B7
100
AcDbEntity
  8
ANNOTATION_TEXT
 62
     7
100
AcDbLine
 10
378.9490898399973
 20
340.5579359123333
 30
0.0
 11
378.9490898399973
 21
255.3023170343256
 31
0.0
  0
LINE
  5
BB
330
B7
100
AcDbEntity
  8
ANNOTATION_TEXT
 62
     7
100
AcDbLine
 10
83.87908983999728
 20
256.5523170343256
 30
0.0
 11
376.4490898399973
 21
256.5523170343256
 31
0.0
  0
SOLID
  5
BC
330
B7
100
AcDbEntity
  8
ANNOTATION_TEXT
 62
     7
100
AcDbTrace
 10
83.87908983999728
 20
256.9689837009923
 30
0.0
 11
83.87908983999728
 21
256.1356503676589
 31
0.0
 12
81.37908983999728
 22
256.5523170343256
 32
0.0
 13
81.37908983999728
 23
256.5523170343256
 33
0.0
  0
SOLID
  5
BD
330
B7
100
AcDbEntity
  8
ANNOTATION_TEXT
 62
     7
100
AcDbTrace
 10
376.4490898399973
 20
256.1356503676589
 30
0.0
 11
376.4490898399973
 21
256.9689837009923
 31
0.0
 12
378.9490898399973
 22
256.5523170343256
 32
0.0
 13
378.9490898399973
 23
256.5523170343256
 33
0.0
  0
MTEXT
  5
BE
330
B7
100
AcDbEntity
  8
ANNOTATION_TEXT
 62
     7
100
AcDbMText
 10
230.1640898399973
 20
259.259912402173
 30
0.0
 40
3.5
 41
0.0
 71
     5
 72
     1
  1
297,57
  7
ONSHAPE-STANDARD-DIMENSION
  0
POINT
  5
BF
330
B7
100
AcDbEntity
  8
DEFPOINTS
 62
     0
100
AcDbPoint
 10
81.37908983999728
 20
272.4834882790995
 30
0.0
  0
POINT
  5
C0
330
B7
100
AcDbEntity
  8
DEFPOINTS
 62
     0
100
AcDbPoint
 10
378.9490898399973
 20
341.1829359123333
 30
0.0
  0
POINT
  5
C1
330
B7
100
AcDbEntity
  8
DEFPOINTS
 62
     0
100
AcDbPoint
 10
378.9490898399973
 20
256.5523170343256
 30
0.0
  0
ENDBLK
  5
C2
330
B7
100
AcDbEntity
  8
0
100
AcDbBlockEnd
  0
BLOCK
  5
C9
330
C8
100
AcDbEntity
  8
0
100
AcDbBlockBegin
  2
*D4
 70
     1
 10
0.0
 20
0.0
 30
0.0
  3
*D4
  1
*D4
  0
LINE
  5
CA
330
C8
100
AcDbEntity
  8
ANNOTATION_TEXT
 62
     7
100
AcDbLine
 10
379.5740898399973
 20
231.8567125485777
 30
0.0
 11
393.9254325301218
 21
231.8567125485777
 31
0.0
  0
LINE
  5
CB
330
C8
100
AcDbEntity
  8
ANNOTATION_TEXT
 62
     7
100
AcDbLine
 10
379.5740898399973
 20
213.8567125485777
 30
0.0
 11
393.9254325301218
 21
213.8567125485777
 31
0.0
  0
LINE
  5
CC
330
C8
100
AcDbEntity
  8
ANNOTATION_TEXT
 62
     7
100
AcDbLine
 10
392.6754325301218
 20
229.3567125485777
 30
0.0
 11
392.6754325301218
 21
216.3567125485777
 31
0.0
  0
SOLID
  5
CD
330
C8
100
AcDbEntity
  8
ANNOTATION_TEXT
 62
     7
100
AcDbTrace
 10
393.0920991967885
 20
229.3567125485777
 30
0.0
 11
392.2587658634552
 21
229.3567125485777
 31
0.0
 12
392.6754325301218
 22
231.8567125485777
 32
0.0
 13
392.6754325301218
 23
231.8567125485777
 33
0.0
  0
SOLID
  5
CE
330
C8
100
AcDbEntity
  8
ANNOTATION_TEXT
 62
     7
100
AcDbTrace
 10
392.2587658634552
 20
216.3567125485777
 30
0.0
 11
393.0920991967885
 21
216.3567125485777
 31
0.0
 12
392.6754325301218
 22
213.8567125485777
 32
0.0
 13
392.6754325301218
 23
213.8567125485777
 33
0.0
  0
MTEXT
  5
CF
330
C8
100
AcDbEntity
  8
ANNOTATION_TEXT
 62
     7
100
AcDbMText
 10
390.2587090968793
 20
222.8567125485777
 30
0.0
 40
3.5
 41
0.0
 71
     5
 72
     1
  1
18
  7
ONSHAPE-STANDARD-DIMENSION
 11
0.0
 21
1.0
 31
0.0
  0
POINT
  5
D0
330
C8
100
AcDbEntity
  8
DEFPOINTS
 62
     0
100
AcDbPoint
 10
378.9490898399973
 20
231.8567125485777
 30
0.0
  0
POINT
  5
D1
330
C8
100
AcDbEntity
  8
DEFPOINTS
 62
     0
100
AcDbPoint
 10
378.9490898399973
 20
213.8567125485777
 30
0.0
  0
POINT
  5
D2
330
C8
100
AcDbEntity
  8
DEFPOINTS
 62
     0
100
AcDbPoint
 10
392.6754325301218
 20
213.8567125485777
 30
0.0
  0
ENDBLK
  5
D3
330
C8
100
AcDbEntity
  8
0
100
AcDbBlockEnd
  0
BLOCK
  5
DA
330
D9
100
AcDbEntity
  8
0
100
AcDbBlockBegin
  2
*D5
 70
     1
 10
0.0
 20
0.0
 30
0.0
  3
*D5
  1
*D5
  0
LINE
  5
DB
330
D9
100
AcDbEntity
  8
ANNOTATION_TEXT
 62
     7
100
AcDbLine
 10
418.3799863448755
 20
287.3034081929458
 30
0.0
 11
401.0926839724126
 21
299.8699817924007
 31
0.0
  0
LINE
  5
DC
330
D9
100
AcDbEntity
  8
ANNOTATION_TEXT
 62
     7
100
AcDbLine
 10
427.6819893369688
 20
280.5415489563831
 30
0.0
 11
429.7041639004673
 21
279.0715795571303
 31
0.0
  0
MTEXT
  5
DD
330
D9
100
AcDbEntity
  8
ANNOTATION_TEXT
 62
     7
100
AcDbMText
 10
407.5547075863036
 20
298.998934909717
 30
0.0
 40
3.5
 41
0.0
 71
     5
 72
     1
  1
%%c6,5
  7
ONSHAPE-STANDARD-DIMENSION
 11
0.8088698253994151
 21
-0.5879877597011011
 31
0.0
  0
LINE
  5
DE
330
D9
100
AcDbEntity
  8
ANNOTATION_TEXT
 62
     7
100
AcDbLine
 10
425.6598147734703
 20
282.0115183556358
 30
0.0
 11
420.402160908374
 21
285.833438793693
 31
0.0
  0
SOLID
  5
DF
330
D9
100
AcDbEntity
  8
ANNOTATION_TEXT
 62
     7
100
AcDbTrace
 10
427.9269842368442
 20
280.8785780502995
 30
0.0
 11
427.4369944370933
 21
280.2045198624666
 31
0.0
 12
425.6598147734703
 22
282.0115183556358
 32
0.0
 13
425.6598147734703
 23
282.0115183556358
 33
0.0
  0
SOLID
  5
E0
330
D9
100
AcDbEntity
  8
ANNOTATION_TEXT
 62
     7
100
AcDbTrace
 10
418.134991445
 20
286.9663790990293
 30
0.0
 11
418.6249812447509
 21
287.6404372868622
 31
0.0
 12
420.402160908374
 22
285.833438793693
 32
0.0
 13
420.402160908374
 23
285.833438793693
 33
0.0
  0
POINT
  5
E1
330
D9
100
AcDbEntity
  8
DEFPOINTS
 62
     0
100
AcDbPoint
 10
420.402160908374
 20
285.833438793693
 30
0.0
  0
POINT
  5
E2
330
D9
100
AcDbEntity
  8
DEFPOINTS
 62
     0
100
AcDbPoint
 10
425.6598147734703
 20
282.0115183556358
 30
0.0
  0
ENDBLK
  5
E3
330
D9
100
AcDbEntity
  8
0
100
AcDbBlockEnd
  0
BLOCK
  5
EA
330
E9
100
AcDbEntity
  8
0
100
AcDbBlockBegin
  2
*D6
 70
     1
 10
0.0
 20
0.0
 30
0.0
  3
*D6
  1
*D6
  0
LINE
  5
EB
330
E9
100
AcDbEntity
  8
ANNOTATION_TEXT
 62
     7
100
AcDbLine
 10
76.82952896335249
 20
299.0876731829081
 30
0.0
 11
61.81467214752256
 21
309.8637526437361
 31
0.0
  0
LINE
  5
EC
330
E9
100
AcDbEntity
  8
ANNOTATION_TEXT
 62
     7
100
AcDbLine
 10
85.92865071664201
 20
292.5572839664207
 30
0.0
 11
87.95970467942985
 21
291.0996078020262
 31
0.0
  0
MTEXT
  5
ED
330
E9
100
AcDbEntity
  8
ANNOTATION_TEXT
 62
     7
100
AcDbMText
 10
68.29154537198106
 20
309.0249686279394
 30
0.0
 40
3.5
 41
0.0
 71
     5
 72
     1
  1
%%c6,2
  7
ONSHAPE-STANDARD-DIMENSION
 11
0.8124215851151337
 21
-0.5830704657577964
 31
0.0
  0
LINE
  5
EE
330
E9
100
AcDbEntity
  8
ANNOTATION_TEXT
 62
     7
100
AcDbLine
 10
83.89759675385417
 20
294.0149601308152
 30
0.0
 11
78.86058292614032
 21
297.6299970185136
 31
0.0
  0
SOLID
  5
EF
330
E9
100
AcDbEntity
  8
ANNOTATION_TEXT
 62
     7
100
AcDbTrace
 10
86.1715967440411
 20
292.8957929602187
 30
0.0
 11
85.68570468924293
 21
292.2187749726227
 31
0.0
 12
83.89759675385417
 22
294.0149601308152
 32
0.0
 13
83.89759675385417
 23
294.0149601308152
 33
0.0
  0
SOLID
  5
F0
330
E9
100
AcDbEntity
  8
ANNOTATION_TEXT
 62
     7
100
AcDbTrace
 10
76.5865829359534
 20
298.7491641891101
 30
0.0
 11
77.07247499075157
 21
299.426182176706
 31
0.0
 12
78.86058292614032
 22
297.6299970185136
 32
0.0
 13
78.86058292614032
 23
297.6299970185136
 33
0.0
  0
ARC
  5
F1
330
E9
100
AcDbEntity
  8
ANNOTATION_TEXT
 62
     7
100
AcDbCircle
 10
81.37908983999725
 20
295.8224785746644
 30
0.0
 40
3.100000000000013
100
AcDbArc
 50
101.5712228528709
 51
159.3763542146327
  0
POINT
  5
F2
330
E9
100
AcDbEntity
  8
DEFPOINTS
 62
     0
100
AcDbPoint
 10
78.86058292614032
 20
297.6299970185136
 30
0.0
  0
POINT
  5
F3
330
E9
100
AcDbEntity
  8
DEFPOINTS
 62
     0
100
AcDbPoint
 10
83.89759675385417
 20
294.0149601308152
 30
0.0
  0
ENDBLK
  5
F4
330
E9
100
AcDbEntity
  8
0
100
AcDbBlockEnd
  0
BLOCK
  5
FB
330
FA
100
AcDbEntity
  8
0
100
AcDbBlockBegin
  2
*D7
 70
     1
 10
0.0
 20
0.0
 30
0.0
  3
*D7
  1
*D7
  0
LINE
  5
FC
330
FA
100
AcDbEntity
  8
ANNOTATION_TEXT
 62
     7
100
AcDbLine
 10
78.78796417257118
 20
181.8167354246161
 30
0.0
 11
78.78796417257118
 21
192.2440684233488
 31
0.0
  0
LINE
  5
FD
330
FA
100
AcDbEntity
  8
ANNOTATION_TEXT
 62
     7
100
AcDbLine
 10
75.18796417257118
 20
181.8167354246161
 30
0.0
 11
75.18796417257118
 21
192.2440684233488
 31
0.0
  0
LINE
  5
FE
330
FA
100
AcDbEntity
  8
ANNOTATION_TEXT
 62
     7
100
AcDbLine
 10
75.18796417257118
 20
190.9940684233488
 30
0.0
 11
62.49348188374285
 21
190.9940684233488
 31
0.0
  0
LINE
  5
FF
330
FA
100
AcDbEntity
  8
ANNOTATION_TEXT
 62
     7
100
AcDbLine
 10
78.78796417257118
 20
190.9940684233488
 30
0.0
 11
75.18796417257118
 21
190.9940684233488
 31
0.0
  0
LINE
  5
100
330
FA
100
AcDbEntity
  8
ANNOTATION_TEXT
 62
     7
100
AcDbLine
 10
81.28796417257118
 20
190.9940684233488
 30
0.0
 11
83.78796417257118
 21
190.9940684233488
 31
0.0
  0
LINE
  5
101
330
FA
100
AcDbEntity
  8
ANNOTATION_TEXT
 62
     7
100
AcDbLine
 10
72.68796417257118
 20
190.9940684233488
 30
0.0
 11
70.18796417257118
 21
190.9940684233488
 31
0.0
  0
SOLID
  5
102
330
FA
100
AcDbEntity
  8
ANNOTATION_TEXT
 62
     7
100
AcDbTrace
 10
81.28796417257118
 20
191.4107350900155
 30
0.0
 11
81.28796417257118
 21
190.5774017566822
 31
0.0
 12
78.78796417257118
 22
190.9940684233488
 32
0.0
 13
78.78796417257118
 23
190.9940684233488
 33
0.0
  0
SOLID
  5
103
330
FA
100
AcDbEntity
  8
ANNOTATION_TEXT
 62
     7
100
AcDbTrace
 10
72.68796417257118
 20
190.5774017566822
 30
0.0
 11
72.68796417257118
 21
191.4107350900155
 31
0.0
 12
75.18796417257118
 22
190.9940684233488
 32
0.0
 13
75.18796417257118
 23
190.9940684233488
 33
0.0
  0
MTEXT
  5
104
330
FA
100
AcDbEntity
  8
ANNOTATION_TEXT
 62
     7
100
AcDbMText
 10
66.34072302815702
 20
193.7016637911962
 30
0.0
 40
3.5
 41
0.0
 71
     5
 72
     1
  1
3,6
  7
ONSHAPE-STANDARD-DIMENSION
  0
POINT
  5
105
330
FA
100
AcDbEntity
  8
DEFPOINTS
 62
     0
100
AcDbPoint
 10
78.78796417257118
 20
181.1917354246161
 30
0.0
  0
POINT
  5
106
330
FA
100
AcDbEntity
  8
DEFPOINTS
 62
     0
100
AcDbPoint
 10
75.18796417257118
 20
181.1917354246161
 30
0.0
  0
POINT
  5
107
330
FA
100
AcDbEntity
  8
DEFPOINTS
 62
     0
100
AcDbPoint
 10
75.18796417257118
 20
190.9940684233488
 30
0.0
  0
ENDBLK
  5
108
330
FA
100
AcDbEntity
  8
0
100
AcDbBlockEnd
  0
BLOCK
  5
10F
330
10E
100
AcDbEntity
  8
0
100
AcDbBlockBegin
  2
*D8
 70
     1
 10
0.0
 20
0.0
 30
0.0
  3
*D8
  1
*D8
  0
LINE
  5
110
330
10E
100
AcDbEntity
  8
ANNOTATION_TEXT
 62
     7
100
AcDbLine
 10
77.81111649128951
 20
44.49792233763819
 30
0.0
 11
77.81111649128951
 21
36.61703689743021
 31
0.0
  0
LINE
  5
111
330
10E
100
AcDbEntity
  8
ANNOTATION_TEXT
 62
     7
100
AcDbLine
 10
89.81111649128951
 20
44.49792233763819
 30
0.0
 11
89.81111649128951
 21
36.61703689743021
 31
0.0
  0
LINE
  5
112
330
10E
100
AcDbEntity
  8
ANNOTATION_TEXT
 62
     7
100
AcDbLine
 10
80.31111649128951
 20
37.86703689743021
 30
0.0
 11
87.31111649128951
 21
37.86703689743021
 31
0.0
  0
SOLID
  5
113
330
10E
100
AcDbEntity
  8
ANNOTATION_TEXT
 62
     7
100
AcDbTrace
 10
80.31111649128951
 20
38.28370356409688
 30
0.0
 11
80.31111649128951
 21
37.45037023076355
 31
0.0
 12
77.81111649128951
 22
37.86703689743021
 32
0.0
 13
77.81111649128951
 23
37.86703689743021
 33
0.0
  0
SOLID
  5
114
330
10E
100
AcDbEntity
  8
ANNOTATION_TEXT
 62
     7
100
AcDbTrace
 10
87.31111649128951
 20
37.45037023076355
 30
0.0
 11
87.31111649128951
 21
38.28370356409688
 31
0.0
 12
89.81111649128951
 22
37.86703689743021
 32
0.0
 13
89.81111649128951
 23
37.86703689743021
 33
0.0
  0
MTEXT
  5
115
330
10E
100
AcDbEntity
  8
ANNOTATION_TEXT
 62
     7
100
AcDbMText
 10
83.81111649128951
 20
40.25991836881985
 30
0.0
 40
3.5
 41
0.0
 71
     5
 72
     1
  1
12
  7
ONSHAPE-STANDARD-DIMENSION
  0
POINT
  5
116
330
10E
100
AcDbEntity
  8
DEFPOINTS
 62
     0
100
AcDbPoint
 10
77.81111649128951
 20
45.12292233763819
 30
0.0
  0
POINT
  5
117
330
10E
100
AcDbEntity
  8
DEFPOINTS
 62
     0
100
AcDbPoint
 10
89.81111649128951
 20
45.12292233763819
 30
0.0
  0
POINT
  5
118
330
10E
100
AcDbEntity
  8
DEFPOINTS
 62
     0
100
AcDbPoint
 10
89.81111649128951
 20
37.86703689743021
 30
0.0
  0
ENDBLK
  5
119
330
10E
100
AcDbEntity
  8
0
100
AcDbBlockEnd
  0
BLOCK
  5
120
330
11F
100
AcDbEntity
  8
0
100
AcDbBlockBegin
  2
*D9
 70
     1
 10
0.0
 20
0.0
 30
0.0
  3
*D9
  1
*D9
  0
LINE
  5
121
330
11F
100
AcDbEntity
  8
ANNOTATION_TEXT
 62
     7
100
AcDbLine
 10
90.43611649128951
 20
75.12292233763819
 30
0.0
 11
98.03392967127392
 21
75.12292233763819
 31
0.0
  0
LINE
  5
122
330
11F
100
AcDbEntity
  8
ANNOTATION_TEXT
 62
     7
100
AcDbLine
 10
90.43611649128951
 20
45.12292233763819
 30
0.0
 11
98.03392967127392
 21
45.12292233763819
 31
0.0
  0
LINE
  5
123
330
11F
100
AcDbEntity
  8
ANNOTATION_TEXT
 62
     7
100
AcDbLine
 10
96.78392967127392
 20
72.62292233763819
 30
0.0
 11
96.78392967127392
 21
47.62292233763819
 31
0.0
  0
SOLID
  5
124
330
11F
100
AcDbEntity
  8
ANNOTATION_TEXT
 62
     7
100
AcDbTrace
 10
97.2005963379406
 20
72.62292233763819
 30
0.0
 11
96.36726300460725
 21
72.62292233763819
 31
0.0
 12
96.78392967127392
 22
75.12292233763819
 32
0.0
 13
96.78392967127392
 23
75.12292233763819
 33
0.0
  0
SOLID
  5
125
330
11F
100
AcDbEntity
  8
ANNOTATION_TEXT
 62
     7
100
AcDbTrace
 10
96.36726300460725
 20
47.62292233763819
 30
0.0
 11
97.2005963379406
 21
47.62292233763819
 31
0.0
 12
96.78392967127392
 22
45.12292233763819
 32
0.0
 13
96.78392967127392
 23
45.12292233763819
 33
0.0
  0
MTEXT
  5
126
330
11F
100
AcDbEntity
  8
ANNOTATION_TEXT
 62
     7
100
AcDbMText
 10
94.36482204184614
 20
60.12292233763819
 30
0.0
 40
3.5
 41
0.0
 71
     5
 72
     1
  1
30
  7
ONSHAPE-STANDARD-DIMENSION
 11
0.0
 21
1.0
 31
0.0
  0
POINT
  5
127
330
11F
100
AcDbEntity
  8
DEFPOINTS
 62
     0
100
AcDbPoint
 10
89.81111649128951
 20
75.12292233763819
 30
0.0
  0
POINT
  5
128
330
11F
100
AcDbEntity
  8
DEFPOINTS
 62
     0
100
AcDbPoint
 10
89.81111649128951
 20
45.12292233763819
 30
0.0
  0
POINT
  5
129
330
11F
100
AcDbEntity
  8
DEFPOINTS
 62
     0
100
AcDbPoint
 10
96.78392967127392
 20
45.12292233763819
 30
0.0
  0
ENDBLK
  5
12A
330
11F
100
AcDbEntity
  8
0
100
AcDbBlockEnd
  0
BLOCK
  5
130
330
12F
100
AcDbEntity
  8
0
100
AcDbBlockBegin
  2
*D10
 70
     1
 10
0.0
 20
0.0
 30
0.0
  3
*D10
  1
*D10
  0
LINE
  5
131
330
12F
100
AcDbEntity
  8
ANNOTATION_TEXT
 62
     7
100
AcDbLine
 10
79.66934675792143
 20
62.9239477705388
 30
0.0
 11
64.5427862593003
 21
73.15384547045089
 31
0.0
  0
LINE
  5
132
330
12F
100
AcDbEntity
  8
ANNOTATION_TEXT
 62
     7
100
AcDbLine
 10
87.95288622465759
 20
57.32189690473757
 30
0.0
 11
90.02377109134163
 21
55.92138418828726
 31
0.0
  0
MTEXT
  5
133
330
12F
100
AcDbEntity
  8
ANNOTATION_TEXT
 62
     7
100
AcDbMText
 10
69.33217892422839
 20
73.65119943017856
 30
0.0
 40
3.5
 41
0.0
 71
     5
 72
     1
  1
%%c5
  7
ONSHAPE-STANDARD-DIMENSION
 11
0.8283539466736163
 21
-0.5602050865801235
 31
0.0
  0
LINE
  5
134
330
12F
100
AcDbEntity
  8
ANNOTATION_TEXT
 62
     7
100
AcDbLine
 10
85.88200135797355
 20
58.72240962118788
 30
0.0
 11
81.74023162460547
 21
61.52343505408849
 31
0.0
  0
SOLID
  5
135
330
12F
100
AcDbEntity
  8
ANNOTATION_TEXT
 62
     7
100
AcDbTrace
 10
88.18630501073264
 20
57.66704438251824
 30
0.0
 11
87.71946743858254
 21
56.9767494269569
 31
0.0
 12
85.88200135797355
 22
58.72240962118788
 32
0.0
 13
85.88200135797355
 23
58.72240962118788
 33
0.0
  0
SOLID
  5
136
330
12F
100
AcDbEntity
  8
ANNOTATION_TEXT
 62
     7
100
AcDbTrace
 10
79.43592797184638
 20
62.57880029275813
 30
0.0
 11
79.90276554399648
 21
63.26909524831947
 31
0.0
 12
81.74023162460547
 22
61.52343505408849
 32
0.0
 13
81.74023162460547
 23
61.52343505408849
 33
0.0
  0
POINT
  5
137
330
12F
100
AcDbEntity
  8
DEFPOINTS
 62
     0
100
AcDbPoint
 10
81.74023162460547
 20
61.52343505408849
 30
0.0
  0
POINT
  5
138
330
12F
100
AcDbEntity
  8
DEFPOINTS
 62
     0
100
AcDbPoint
 10
85.88200135797355
 20
58.72240962118788
 30
0.0
  0
ENDBLK
  5
139
330
12F
100
AcDbEntity
  8
0
100
AcDbBlockEnd
  0
BLOCK
  5
140
330
13F
100
AcDbEntity
  8
0
100
AcDbBlockBegin
  2
*D11
 70
     1
 10
0.0
 20
0.0
 30
0.0
  3
*D11
  1
*D11
  0
LINE
  5
141
330
13F
100
AcDbEntity
  8
ANNOTATION_TEXT
 62
     7
100
AcDbLine
 10
99.42408983999727
 20
335.9224785746644
 30
0.0
 11
65.23692639298204
 21
335.9224785746644
 31
0.0
  0
LINE
  5
142
330
13F
100
AcDbEntity
  8
ANNOTATION_TEXT
 62
     7
100
AcDbLine
 10
96.32408983999727
 20
359.9224785746644
 30
0.0
 11
65.23692639298204
 21
359.9224785746644
 31
0.0
  0
LINE
  5
143
330
13F
100
AcDbEntity
  8
ANNOTATION_TEXT
 62
     7
100
AcDbLine
 10
66.48692639298204
 20
338.4224785746644
 30
0.0
 11
66.48692639298204
 21
357.4224785746644
 31
0.0
  0
SOLID
  5
144
330
13F
100
AcDbEntity
  8
ANNOTATION_TEXT
 62
     7
100
AcDbTrace
 10
66.07025972631537
 20
338.4224785746644
 30
0.0
 11
66.90359305964871
 21
338.4224785746644
 31
0.0
 12
66.48692639298204
 22
335.9224785746644
 32
0.0
 13
66.48692639298204
 23
335.9224785746644
 33
0.0
  0
SOLID
  5
145
330
13F
100
AcDbEntity
  8
ANNOTATION_TEXT
 62
     7
100
AcDbTrace
 10
66.90359305964871
 20
357.4224785746644
 30
0.0
 11
66.07025972631537
 21
357.4224785746644
 31
0.0
 12
66.48692639298204
 22
359.9224785746644
 32
0.0
 13
66.48692639298204
 23
359.9224785746644
 33
0.0
  0
MTEXT
  5
146
330
13F
100
AcDbEntity
  8
ANNOTATION_TEXT
 62
     7
100
AcDbMText
 10
64.09404492159237
 20
347.9224785746644
 30
0.0
 40
3.5
 41
0.0
 71
     5
 72
     1
  1
24
  7
ONSHAPE-STANDARD-DIMENSION
 11
0.0
 21
1.0
 31
0.0
  0
POINT
  5
147
330
13F
100
AcDbEntity
  8
DEFPOINTS
 62
     0
100
AcDbPoint
 10
100.0490898399973
 20
335.9224785746644
 30
0.0
  0
POINT
  5
148
330
13F
100
AcDbEntity
  8
DEFPOINTS
 62
     0
100
AcDbPoint
 10
96.94908983999727
 20
359.9224785746644
 30
0.0
  0
POINT
  5
149
330
13F
100
AcDbEntity
  8
DEFPOINTS
 62
     0
100
AcDbPoint
 10
66.48692639298204
 20
359.9224785746644
 30
0.0
  0
ENDBLK
  5
14A
330
13F
100
AcDbEntity
  8
0
100
AcDbBlockEnd
  0
BLOCK
  5
151
330
150
100
AcDbEntity
  8
0
100
AcDbBlockBegin
  2
*D12
 70
     1
 10
0.0
 20
0.0
 30
0.0
  3
*D12
  1
*D12
  0
LINE
  5
152
330
150
100
AcDbEntity
  8
ANNOTATION_TEXT
 62
     7
100
AcDbLine
 10
96.94908983999727
 20
360.5474785746644
 30
0.0
 11
96.94908983999727
 21
372.572752856358
 31
0.0
  0
LINE
  5
153
330
150
100
AcDbEntity
  8
ANNOTATION_TEXT
 62
     7
100
AcDbLine
 10
144.6863712142359
 20
360.5474785746644
 30
0.0
 11
144.6863712142359
 21
372.572752856358
 31
0.0
  0
LINE
  5
154
330
150
100
AcDbEntity
  8
ANNOTATION_TEXT
 62
     7
100
AcDbLine
 10
99.44908983999727
 20
371.322752856358
 30
0.0
 11
142.1863712142359
 21
371.322752856358
 31
0.0
  0
SOLID
  5
155
330
150
100
AcDbEntity
  8
ANNOTATION_TEXT
 62
     7
100
AcDbTrace
 10
99.44908983999727
 20
371.7394195230247
 30
0.0
 11
99.44908983999727
 21
370.9060861896913
 31
0.0
 12
96.94908983999727
 22
371.322752856358
 32
0.0
 13
96.94908983999727
 23
371.322752856358
 33
0.0
  0
SOLID
  5
156
330
150
100
AcDbEntity
  8
ANNOTATION_TEXT
 62
     7
100
AcDbTrace
 10
142.1863712142359
 20
370.9060861896913
 30
0.0
 11
142.1863712142359
 21
371.7394195230247
 31
0.0
 12
144.6863712142359
 22
371.322752856358
 32
0.0
 13
144.6863712142359
 23
371.322752856358
 33
0.0
  0
MTEXT
  5
157
330
150
100
AcDbEntity
  8
ANNOTATION_TEXT
 62
     7
100
AcDbMText
 10
119.2872003304244
 20
374.014850949001
 30
0.0
 40
3.5
 41
0.0
 71
     5
 72
     1
  1
47,74
  7
ONSHAPE-STANDARD-DIMENSION
  0
POINT
  5
158
330
150
100
AcDbEntity
  8
DEFPOINTS
 62
     0
100
AcDbPoint
 10
96.94908983999727
 20
359.9224785746644
 30
0.0
  0
POINT
  5
159
330
150
100
AcDbEntity
  8
DEFPOINTS
 62
     0
100
AcDbPoint
 10
144.6863712142359
 20
359.9224785746644
 30
0.0
  0
POINT
  5
15A
330
150
100
AcDbEntity
  8
DEFPOINTS
 62
     0
100
AcDbPoint
 10
144.6863712142359
 20
371.322752856358
 30
0.0
  0
ENDBLK
  5
15B
330
150
100
AcDbEntity
  8
0
100
AcDbBlockEnd
  0
BLOCK
  5
162
330
161
100
AcDbEntity
  8
0
100
AcDbBlockBegin
  2
*D13
 70
     1
 10
0.0
 20
0.0
 30
0.0
  3
*D13
  1
*D13
  0
LINE
  5
163
330
161
100
AcDbEntity
  8
ANNOTATION_TEXT
 62
     7
100
AcDbLine
 10
379.5740898399973
 20
359.9224785746644
 30
0.0
 11
391.5596792182199
 21
359.9224785746644
 31
0.0
  0
LINE
  5
164
330
161
100
AcDbEntity
  8
ANNOTATION_TEXT
 62
     7
100
AcDbLine
 10
379.5740898399973
 20
341.1829359123333
 30
0.0
 11
391.5596792182199
 21
341.1829359123333
 31
0.0
  0
LINE
  5
165
330
161
100
AcDbEntity
  8
ANNOTATION_TEXT
 62
     7
100
AcDbLine
 10
390.3096792182199
 20
357.4224785746644
 30
0.0
 11
390.3096792182199
 21
343.6829359123333
 31
0.0
  0
SOLID
  5
166
330
161
100
AcDbEntity
  8
ANNOTATION_TEXT
 62
     7
100
AcDbTrace
 10
390.7263458848866
 20
357.4224785746644
 30
0.0
 11
389.8930125515532
 21
357.4224785746644
 31
0.0
 12
390.3096792182199
 22
359.9224785746644
 32
0.0
 13
390.3096792182199
 23
359.9224785746644
 33
0.0
  0
SOLID
  5
167
330
161
100
AcDbEntity
  8
ANNOTATION_TEXT
 62
     7
100
AcDbTrace
 10
389.8930125515532
 20
343.6829359123333
 30
0.0
 11
390.7263458848866
 21
343.6829359123333
 31
0.0
 12
390.3096792182199
 22
341.1829359123333
 32
0.0
 13
390.3096792182199
 23
341.1829359123333
 33
0.0
  0
MTEXT
  5
168
330
161
100
AcDbEntity
  8
ANNOTATION_TEXT
 62
     7
100
AcDbMText
 10
387.6020838503725
 20
350.5527072434988
 30
0.0
 40
3.5
 41
0.0
 71
     5
 72
     1
  1
18,74
  7
ONSHAPE-STANDARD-DIMENSION
 11
0.0
 21
1.0
 31
0.0
  0
POINT
  5
169
330
161
100
AcDbEntity
  8
DEFPOINTS
 62
     0
100
AcDbPoint
 10
378.9490898399973
 20
359.9224785746644
 30
0.0
  0
POINT
  5
16A
330
161
100
AcDbEntity
  8
DEFPOINTS
 62
     0
100
AcDbPoint
 10
378.9490898399973
 20
341.1829359123333
 30
0.0
  0
POINT
  5
16B
330
161
100
AcDbEntity
  8
DEFPOINTS
 62
     0
100
AcDbPoint
 10
390.3096792182199
 20
341.1829359123333
 30
0.0
  0
ENDBLK
  5
16C
330
161
100
AcDbEntity
  8
0
100
AcDbBlockEnd
  0
ENDSEC
  0
SECTION
  2
ENTITIES
  0
DIMENSION
  5
88
102
{ACAD_REACTORS
102
}
102
{ACAD_XDICTIONARY
360
89
102
}
330
1F
100
AcDbEntity
  8
ANNOTATION_TEXT
100
AcDbDimension
  2
*D1
 10
78.9879641725712
 20
184.6748416849318
 30
0.0
 11
66.34577071208072
 21
184.6748416849318
 31
0.0
 70
   160
  3
ONSHAPE-ISO-25$0
100
AcDbAlignedDimension
 13
76.55796417257119
 23
151.1917354246161
 33
3.369922816220772
 14
78.9879641725712
 24
178.1917354246161
 34
3.369922816220773
 50
-0.0000000000000509
100
AcDbRotatedDimension
1001
ACAD
1000
DSTYLE
1002
{
1070
     4
1000
<>
1070
   144
1040
1.0
1070
     3
1000

1070
   288
1070
     1
1002
}
1001
ACAD_DIMASSOC_CALC_DIMLFAC
1040
-1.0
1001
ACAD_DIMASSOC_DIMLFAC
1040
-1.0
1001
ACAD_DIMASSOC_OVERRIDDEN_D
1040
0.0
  0
DIMENSION
  5
A1
102
{ACAD_REACTORS
102
}
102
{ACAD_XDICTIONARY
360
A2
102
}
330
1F
100
AcDbEntity
  8
ANNOTATION_TEXT
100
AcDbDimension
  2
*D2
 10
457.9408749805987
 20
272.4834882790995
 30
0.0
 11
457.9408749805987
 21
316.2029834268819
 31
0.0
 70
   160
  3
ONSHAPE-ISO-25$0
100
AcDbAlignedDimension
 13
432.0309878409221
 23
359.9224785746644
 33
135.07
 14
432.0309878409221
 24
272.4834882790995
 34
135.07
 50
90.0
100
AcDbRotatedDimension
1001
ACAD
1000
DSTYLE
1002
{
1070
     4
1000
<>
1070
   144
1040
1.0
1070
     3
1000

1070
   288
1070
     1
1002
}
1001
ACAD_DIMASSOC_CALC_DIMLFAC
1040
-1.0
1001
ACAD_DIMASSOC_DIMLFAC
1040
-1.0
1001
ACAD_DIMASSOC_OVERRIDDEN_D
1040
0.0
  0
DIMENSION
  5
B2
102
{ACAD_REACTORS
102
}
102
{ACAD_XDICTIONARY
360
B3
102
}
330
1F
100
AcDbEntity
  8
ANNOTATION_TEXT
100
AcDbDimension
  2
*D3
 10
378.9490898399973
 20
256.5523170343256
 30
0.0
 11
230.1640898399973
 21
256.5523170343256
 31
0.0
 70
   160
  3
ONSHAPE-ISO-25$0
100
AcDbAlignedDimension
 13
81.37908983999728
 23
272.4834882790995
 33
9.000000000000025
 14
378.9490898399973
 24
341.1829359123333
 34
8.999999999999968
100
AcDbRotatedDimension
1001
ACAD
1000
DSTYLE
1002
{
1070
     4
1000
<>
1070
   144
1040
1.0
1070
     3
1000

1070
   288
1070
     1
1002
}
1001
ACAD_DIMASSOC_CALC_DIMLFAC
1040
-1.0
1001
ACAD_DIMASSOC_DIMLFAC
1040
-1.0
1001
ACAD_DIMASSOC_OVERRIDDEN_D
1040
0.0
  0
DIMENSION
  5
C3
102
{ACAD_REACTORS
102
}
102
{ACAD_XDICTIONARY
360
C4
102
}
330
1F
100
AcDbEntity
  8
ANNOTATION_TEXT
100
AcDbDimension
  2
*D4
 10
392.6754325301218
 20
213.8567125485777
 30
0.0
 11
392.6754325301218
 21
222.8567125485777
 31
0.0
 70
   160
  3
ONSHAPE-ISO-25$0
100
AcDbAlignedDimension
 13
378.9490898399973
 23
231.8567125485777
 33
44.0
 14
378.9490898399973
 24
213.8567125485777
 34
43.99999999999999
 50
90.0
100
AcDbRotatedDimension
1001
ACAD
1000
DSTYLE
1002
{
1070
     4
1000
<>
1070
   144
1040
1.0
1070
     3
1000

1070
   288
1070
     1
1002
}
1001
ACAD_DIMASSOC_CALC_DIMLFAC
1040
-1.0
1001
ACAD_DIMASSOC_DIMLFAC
1040
-1.0
1001
ACAD_DIMASSOC_OVERRIDDEN_D
1040
0.0
  0
DIMENSION
  5
D4
102
{ACAD_REACTORS
102
}
102
{ACAD_XDICTIONARY
360
D5
102
}
330
1F
100
AcDbEntity
  8
ANNOTATION_TEXT
100
AcDbDimension
  2
*D5
 10
425.6598147734703
 20
282.0115183556358
 30
135.07
 11
405.7348694485639
 21
296.4954607600561
 31
0.0
 70
   163
  3
ONSHAPE-ISO-25$3
100
AcDbDiametricDimension
 15
420.402160908374
 25
285.833438793693
 35
135.07
 40
0.0
1001
ACAD
1000
DSTYLE
1002
{
1070
     4
1000
<>
1070
   144
1040
1.0
1070
    44
1040
0.85084675
1070
     3
1000
%%c<>
1070
   288
1070
     1
1002
}
1001
ACAD_DSTYLE_DIMRADIAL_EXTE
1070
   387
1070
     1
1070
   388
1040
0.0
1070
   390
1040
6.283185307179586
1001
ACAD_DIMASSOC_CALC_DIMLFAC
1040
-1.0
1001
ACAD_DIMASSOC_DIMLFAC
1040
-1.0
1001
ACAD_DIMASSOC_OVERRIDDEN_D
1040
0.0
  0
DIMENSION
  5
E5
102
{ACAD_REACTORS
102
}
102
{ACAD_XDICTIONARY
360
E6
102
}
330
1F
100
AcDbEntity
  8
ANNOTATION_TEXT
100
AcDbDimension
  2
*D6
 10
83.89759675385417
 20
294.0149601308152
 30
0.0
 11
66.48692639298204
 21
306.5105016851801
 31
0.0
 70
   163
  3
ONSHAPE-ISO-25$3
100
AcDbDiametricDimension
 15
78.86058292614032
 25
297.6299970185136
 35
0.0
 40
0.0
1001
ACAD
1000
DSTYLE
1002
{
1070
     4
1000
<>
1070
   144
1040
1.0
1070
    44
1040
0.8115769
1070
     3
1000
%%c<>
1070
   288
1070
     1
1002
}
1001
ACAD_DSTYLE_DIMRADIAL_EXTE
1070
   387
1070
     1
1070
   388
1040
4.958776771793999
1070
   390
1040
1.570796326794897
1001
ACAD_DIMASSOC_CALC_DIMLFAC
1040
-1.0
1001
ACAD_DIMASSOC_DIMLFAC
1040
-1.0
1001
ACAD_DIMASSOC_OVERRIDDEN_D
1040
0.0
  0
DIMENSION
  5
F5
102
{ACAD_REACTORS
102
}
102
{ACAD_XDICTIONARY
360
F6
102
}
330
1F
100
AcDbEntity
  8
ANNOTATION_TEXT
100
AcDbDimension
  2
*D7
 10
75.18796417257118
 20
190.9940684233488
 30
0.0
 11
66.34072302815702
 21
190.9940684233488
 31
0.0
 70
   160
  3
ONSHAPE-ISO-25$0
100
AcDbAlignedDimension
 13
78.78796417257118
 23
181.1917354246161
 33
1.419922816220773
 14
75.18796417257118
 24
181.1917354246161
 34
1.419922816220773
100
AcDbRotatedDimension
1001
ACAD
1000
DSTYLE
1002
{
1070
     4
1000
<>
1070
   144
1040
1.0
1070
     3
1000

1070
   288
1070
     1
1002
}
1001
ACAD_DIMASSOC_CALC_DIMLFAC
1040
-1.0
1001
ACAD_DIMASSOC_DIMLFAC
1040
-1.0
1001
ACAD_DIMASSOC_OVERRIDDEN_D
1040
0.0
  0
DIMENSION
  5
109
102
{ACAD_REACTORS
102
}
102
{ACAD_XDICTIONARY
360
10A
102
}
330
1F
100
AcDbEntity
  8
ANNOTATION_TEXT
100
AcDbDimension
  2
*D8
 10
89.81111649128951
 20
37.86703689743021
 30
0.0
 11
83.81111649128951
 21
37.86703689743021
 31
0.0
 70
   161
  3
ONSHAPE-ISO-25$0
100
AcDbAlignedDimension
 13
77.81111649128951
 23
45.12292233763819
 33
-0.0000000000000009
 14
89.81111649128951
 24
45.12292233763819
 34
-0.0000000000000009
1001
ACAD
1000
DSTYLE
1002
{
1070
     4
1000
<>
1070
   144
1040
1.0
1070
     3
1000

1070
   288
1070
     1
1002
}
1001
ACAD_DIMASSOC_CALC_DIMLFAC
1040
-1.0
1001
ACAD_DIMASSOC_DIMLFAC
1040
-1.0
1001
ACAD_DIMASSOC_OVERRIDDEN_D
1040
0.0
  0
DIMENSION
  5
11A
102
{ACAD_REACTORS
102
}
102
{ACAD_XDICTIONARY
360
11B
102
}
330
1F
100
AcDbEntity
  8
ANNOTATION_TEXT
100
AcDbDimension
  2
*D9
 10
96.78392967127392
 20
45.12292233763819
 30
0.0
 11
96.78392967127392
 21
60.12292233763819
 31
0.0
 70
   161
  3
ONSHAPE-ISO-25$0
100
AcDbAlignedDimension
 13
89.81111649128951
 23
75.12292233763819
 33
0.0000000000000009
 14
89.81111649128951
 24
45.12292233763819
 34
-0.0000000000000009
1001
ACAD
1000
DSTYLE
1002
{
1070
     4
1000
<>
1070
   144
1040
1.0
1070
     3
1000

1070
   288
1070
     1
1002
}
1001
ACAD_DIMASSOC_CALC_DIMLFAC
1040
-1.0
1001
ACAD_DIMASSOC_DIMLFAC
1040
-1.0
1001
ACAD_DIMASSOC_OVERRIDDEN_D
1040
0.0
  0
DIMENSION
  5
12B
102
{ACAD_REACTORS
102
}
102
{ACAD_XDICTIONARY
360
12C
102
}
330
1F
100
AcDbEntity
  8
ANNOTATION_TEXT
100
AcDbDimension
  2
*D10
 10
85.88200135797355
 20
58.72240962118788
 30
-0.0000000000000001
 11
67.59832891681913
 21
71.08742139427149
 31
0.0
 70
   163
  3
ONSHAPE-ISO-25$3
100
AcDbDiametricDimension
 15
81.74023162460547
 25
61.52343505408849
 35
0.0000000000000001
 40
0.0
1001
ACAD
1000
DSTYLE
1002
{
1070
     4
1000
<>
1070
   144
1040
1.0
1070
    44
1040
0.6544975
1070
     3
1000
%%c<>
1070
   288
1070
     1
1002
}
1001
ACAD_DSTYLE_DIMRADIAL_EXTE
1070
   387
1070
     1
1070
   388
1040
0.0
1070
   390
1040
6.283185307179586
1001
ACAD_DIMASSOC_CALC_DIMLFAC
1040
-1.0
1001
ACAD_DIMASSOC_DIMLFAC
1040
-1.0
1001
ACAD_DIMASSOC_OVERRIDDEN_D
1040
0.0
  0
DIMENSION
  5
13A
102
{ACAD_REACTORS
102
}
102
{ACAD_XDICTIONARY
360
13B
102
}
330
1F
100
AcDbEntity
  8
ANNOTATION_TEXT
100
AcDbDimension
  2
*D11
 10
66.48692639298204
 20
359.9224785746644
 30
0.0
 11
66.48692639298204
 21
347.9224785746644
 31
0.0
 70
   160
  3
ONSHAPE-ISO-25$0
100
AcDbAlignedDimension
 13
100.0490898399973
 23
335.9224785746644
 33
-0.0000000000000036
 14
96.94908983999727
 24
359.9224785746644
 34
-0.0000000000000036
 50
90.0
100
AcDbRotatedDimension
1001
ACAD
1000
DSTYLE
1002
{
1070
     4
1000
<>
1070
   144
1040
1.0
1070
     3
1000

1070
   288
1070
     1
1002
}
1001
ACAD_DIMASSOC_CALC_DIMLFAC
1040
-1.0
1001
ACAD_DIMASSOC_DIMLFAC
1040
-1.0
1001
ACAD_DIMASSOC_OVERRIDDEN_D
1040
0.0
  0
DIMENSION
  5
14B
102
{ACAD_REACTORS
102
}
102
{ACAD_XDICTIONARY
360
14C
102
}
330
1F
100
AcDbEntity
  8
ANNOTATION_TEXT
100
AcDbDimension
  2
*D12
 10
144.6863712142359
 20
371.322752856358
 30
0.0
 11
119.2872003304244
 21
371.322752856358
 31
0.0
 70
   160
  3
ONSHAPE-ISO-25$0
100
AcDbAlignedDimension
 13
96.94908983999727
 23
359.9224785746644
 33
9.000000000000021
 14
144.6863712142359
 24
359.9224785746644
 34
9.000000000000012
100
AcDbRotatedDimension
1001
ACAD
1000
DSTYLE
1002
{
1070
     4
1000
<>
1070
   144
1040
1.0
1070
     3
1000

1070
   288
1070
     1
1002
}
1001
ACAD_DIMASSOC_CALC_DIMLFAC
1040
-1.0
1001
ACAD_DIMASSOC_DIMLFAC
1040
-1.0
1001
ACAD_DIMASSOC_OVERRIDDEN_D
1040
0.0
  0
DIMENSION
  5
15C
102
{ACAD_REACTORS
102
}
102
{ACAD_XDICTIONARY
360
15D
102
}
330
1F
100
AcDbEntity
  8
ANNOTATION_TEXT
100
AcDbDimension
  2
*D13
 10
390.3096792182199
 20
341.1829359123333
 30
0.0
 11
390.3096792182199
 21
350.5527072434988
 31
0.0
 70
   161
  3
ONSHAPE-ISO-25$0
100
AcDbAlignedDimension
 13
378.9490898399973
 23
359.9224785746644
 33
8.999999999999968
 14
378.9490898399973
 24
341.1829359123333
 34
8.999999999999968
1001
ACAD
1000
DSTYLE
1002
{
1070
     4
1000
<>
1070
   144
1040
1.0
1070
     3
1000

1070
   288
1070
     1
1002
}
1001
ACAD_DIMASSOC_CALC_DIMLFAC
1040
-1.0
1001
ACAD_DIMASSOC_DIMLFAC
1040
-1.0
1001
ACAD_DIMASSOC_OVERRIDDEN_D
1040
0.0
  0
LINE
  5
16F
330
1F
100
AcDbEntity
  8
VISIBLE
100
AcDbLine
 10
78.94908983999727
 20
298.9224785746644
 30
0.0
 11
81.37908983999728
 21
298.9224785746644
 31
0.0
  0
LINE
  5
170
330
1F
100
AcDbEntity
  8
VISIBLE
100
AcDbLine
 10
81.37908983999728
 20
359.9224785746644
 30
0.0
 11
96.94908983999727
 21
359.9224785746644
 31
0.0
  0
LINE
  5
171
330
1F
100
AcDbEntity
  8
VISIBLE
100
AcDbLine
 10
81.37908983999728
 20
332.9224785746644
 30
0.0
 11
78.94908983999727
 21
332.9224785746644
 31
0.0
  0
ARC
  5
172
330
1F
100
AcDbEntity
  8
VISIBLE
100
AcDbCircle
 10
-81.37908983999728
 20
336.0224785746644
 30
-0.0000000000000152
 40
3.1
210
-1.836970198721030E-16
220
0.0
230
-1.0
100
AcDbArc
 50
104.1169805713028
 51
270.0
  0
ARC
  5
173
330
1F
100
AcDbEntity
  8
VISIBLE
100
AcDbCircle
 10
82.37908983999728
 20
339.9986576450786
 30
-0.0000000000000001
 40
1.0
100
AcDbArc
 50
179.9999999999997
 51
255.8830194286965
  0
LINE
  5
174
330
1F
100
AcDbEntity
  8
VISIBLE
100
AcDbLine
 10
81.37908983999728
 20
339.9986576450786
 30
0.0
 11
81.37908983999728
 21
359.9224785746644
 31
0.0
  0
LINE
  5
175
330
1F
100
AcDbEntity
  8
VISIBLE
100
AcDbLine
 10
96.94908983999727
 20
339.0224785746644
 30
0.0
 11
96.94908983999727
 21
359.9224785746644
 31
0.0
  0
ARC
  5
176
330
1F
100
AcDbEntity
  8
VISIBLE
100
AcDbCircle
 10
-100.0490898399973
 20
339.0224785746644
 30
-0.0000000000000181
 40
3.1
210
-1.836970198721030E-16
220
0.0
230
-1.0
100
AcDbArc
 50
270.0
 51
0.0
  0
LINE
  5
177
330
1F
100
AcDbEntity
  8
VISIBLE
100
AcDbLine
 10
96.94908983999727
 20
276.0781060149245
 30
0.0
 11
81.37908983999728
 21
272.4834882790995
 31
0.0
  0
LINE
  5
178
330
1F
100
AcDbEntity
  8
VISIBLE
100
AcDbLine
 10
115.7158084657587
 20
335.9224785746644
 30
0.0
 11
100.0490898399973
 21
335.9224785746644
 31
0.0
  0
ARC
  5
179
330
1F
100
AcDbEntity
  8
VISIBLE
100
AcDbCircle
 10
-115.7158084657587
 20
341.9224785746644
 30
-0.0000000000000216
 40
6.0
210
-1.836970198721030E-16
220
0.0
230
-1.0
100
AcDbArc
 50
225.0000000000004
 51
270.0000000000005
  0
LINE
  5
17A
330
1F
100
AcDbEntity
  8
VISIBLE
100
AcDbLine
 10
140.4437305271166
 20
358.1651192617837
 30
0.0
 11
119.958449152878
 21
337.6798378875451
 31
0.0
  0
LINE
  5
17B
330
1F
100
AcDbEntity
  8
VISIBLE
100
AcDbLine
 10
378.9490898399973
 20
341.1829359123333
 30
0.0
 11
142.9351096608768
 21
286.6948152280353
 31
0.0
  0
ARC
  5
17C
330
1F
100
AcDbEntity
  8
VISIBLE
100
AcDbCircle
 10
144.6863712142359
 20
353.9224785746644
 30
-0.0000000000000004
 40
6.0
100
AcDbArc
 50
90.0
 51
135.0000000000002
  0
LINE
  5
17D
330
1F
100
AcDbEntity
  8
VISIBLE
100
AcDbLine
 10
144.6863712142359
 20
359.9224785746644
 30
0.0
 11
378.9490898399973
 21
359.9224785746644
 31
0.0
  0
LINE
  5
17E
330
1F
100
AcDbEntity
  8
VISIBLE
100
AcDbLine
 10
378.9490898399973
 20
359.9224785746644
 30
0.0
 11
378.9490898399973
 21
341.1829359123333
 31
0.0
  0
ARC
  5
17F
330
1F
100
AcDbEntity
  8
VISIBLE
100
AcDbCircle
 10
141.5854033348136
 20
292.5410356167467
 30
-0.0000000000000002
 40
6.0
100
AcDbArc
 50
238.0000000000001
 51
283.0000000000001
  0
LINE
  5
180
330
1F
100
AcDbEntity
  8
VISIBLE
100
AcDbLine
 10
138.4058877494144
 20
287.4527470398082
 30
0.0
 11
119.6601331108437
 21
299.1663945918631
 31
0.0
  0
ARC
  5
181
330
1F
100
AcDbEntity
  8
VISIBLE
100
AcDbCircle
 10
-116.4806175254444
 20
294.0781060149245
 30
-0.0000000000000217
 40
6.0
210
-1.836970198721030E-16
220
0.0
230
-1.0
100
AcDbArc
 50
90.0
 51
121.9999999999999
  0
LINE
  5
182
330
1F
100
AcDbEntity
  8
VISIBLE
100
AcDbLine
 10
116.4806175254444
 20
300.0781060149245
 30
0.0
 11
100.0490898399973
 21
300.0781060149245
 31
0.0
  0
ARC
  5
183
330
1F
100
AcDbEntity
  8
VISIBLE
100
AcDbCircle
 10
-100.0490898399973
 20
296.9781060149245
 30
-0.0000000000000181
 40
3.1
210
-1.836970198721030E-16
220
0.0
230
-1.0
100
AcDbArc
 50
0.0
 51
90.0
  0
LINE
  5
184
330
1F
100
AcDbEntity
  8
VISIBLE
100
AcDbLine
 10
96.94908983999727
 20
296.9781060149245
 30
0.0
 11
96.94908983999727
 21
276.0781060149245
 31
0.0
  0
ARC
  5
185
330
1F
100
AcDbEntity
  8
VISIBLE
100
AcDbCircle
 10
82.37908983999728
 20
291.8462995042502
 30
-0.0000000000000001
 40
1.0
100
AcDbArc
 50
104.1169805713035
 51
179.9999999999997
  0
ARC
  5
186
330
1F
100
AcDbEntity
  8
VISIBLE
100
AcDbCircle
 10
81.37908983999728
 20
295.8224785746644
 30
0.0000000000000003
 40
3.1
100
AcDbArc
 50
284.1169805713028
 51
90.0
  0
LINE
  5
187
330
1F
100
AcDbEntity
  8
VISIBLE
100
AcDbLine
 10
81.37908983999728
 20
291.8462995042502
 30
0.0
 11
81.37908983999728
 21
272.4834882790995
 31
0.0
  0
LINE
  5
188
330
1F
100
AcDbEntity
  8
VISIBLE
100
AcDbLine
 10
78.94908983999727
 20
332.9224785746644
 30
0.0
 11
78.94908983999727
 21
298.9224785746644
 31
0.0
  0
CIRCLE
  5
18C
330
1F
100
AcDbEntity
  8
VISIBLE
100
AcDbCircle
 10
423.0309878409221
 20
347.9224785746644
 30
0.0
 40
3.25
  0
LINE
  5
18D
330
1F
100
AcDbEntity
  8
VISIBLE
100
AcDbLine
 10
414.0309878409221
 20
339.9986576450786
 30
0.0
 11
414.0309878409221
 21
359.9224785746644
 31
0.0
  0
LINE
  5
18E
330
1F
100
AcDbEntity
  8
VISIBLE
100
AcDbLine
 10
432.0309878409221
 20
339.9986576450786
 30
0.0
 11
432.0309878409221
 21
359.9224785746644
 31
0.0
  0
LINE
  5
18F
330
1F
100
AcDbEntity
  8
TANGENT_LINES
100
AcDbLine
 10
414.0309878409221
 20
339.9986576450786
 30
0.0
 11
432.0309878409221
 21
339.9986576450786
 31
0.0
  0
LINE
  5
190
330
1F
100
AcDbEntity
  8
VISIBLE
100
AcDbLine
 10
432.0309878409221
 20
359.9224785746644
 30
0.0
 11
414.0309878409221
 21
359.9224785746644
 31
0.0
  0
LINE
  5
191
330
1F
100
AcDbEntity
  8
VISIBLE
100
AcDbLine
 10
421.1059790052641
 20
286.5410356167467
 30
0.0
 11
424.9559966765801
 21
286.5410356167467
 31
0.0
  0
LINE
  5
192
330
1F
100
AcDbEntity
  8
TANGENT_LINES
100
AcDbLine
 10
432.0309878409221
 20
339.0288578718068
 30
0.0
 11
414.0309878409221
 21
339.0288578718068
 31
0.0
  0
LINE
  5
193
330
1F
100
AcDbEntity
  8
VISIBLE
100
AcDbLine
 10
414.0309878409221
 20
291.8462995042502
 30
0.0
 11
414.0309878409221
 21
272.4834882790995
 31
0.0
  0
LINE
  5
194
330
1F
100
AcDbEntity
  8
VISIBLE
100
AcDbLine
 10
432.0309878409221
 20
291.8462995042502
 30
0.0
 11
432.0309878409221
 21
272.4834882790995
 31
0.0
  0
LINE
  5
195
330
1F
100
AcDbEntity
  8
VISIBLE
100
AcDbLine
 10
414.0309878409221
 20
298.9224785746644
 30
0.0
 11
432.0309878409221
 21
298.9224785746644
 31
0.0
  0
LINE
  5
196
330
1F
100
AcDbEntity
  8
VISIBLE
100
AcDbLine
 10
414.0309878409221
 20
332.9224785746644
 30
0.0
 11
414.0309878409221
 21
298.9224785746644
 31
0.0
  0
LINE
  5
197
330
1F
100
AcDbEntity
  8
VISIBLE
100
AcDbLine
 10
432.0309878409221
 20
332.9224785746644
 30
0.0
 11
432.0309878409221
 21
298.9224785746644
 31
0.0
  0
LINE
  5
198
330
1F
100
AcDbEntity
  8
TANGENT_LINES
100
AcDbLine
 10
414.0309878409221
 20
292.816099277522
 30
0.0
 11
432.0309878409221
 21
292.816099277522
 31
0.0
  0
LINE
  5
199
330
1F
100
AcDbEntity
  8
VISIBLE
100
AcDbLine
 10
432.0309878409221
 20
272.4834882790995
 30
0.0
 11
414.0309878409221
 21
272.4834882790995
 31
0.0
  0
LINE
  5
19A
330
1F
100
AcDbEntity
  8
VISIBLE
100
AcDbLine
 10
414.0309878409221
 20
332.9224785746644
 30
0.0
 11
432.0309878409221
 21
332.9224785746644
 31
0.0
  0
LINE
  5
19B
330
1F
100
AcDbEntity
  8
TANGENT_LINES
100
AcDbLine
 10
432.0309878409221
 20
291.8462995042502
 30
0.0
 11
414.0309878409221
 21
291.8462995042502
 31
0.0
  0
LINE
  5
19C
330
1F
100
AcDbEntity
  8
VISIBLE
100
AcDbLine
 10
414.0309878409221
 20
339.0288578718069
 30
0.0
 11
414.0309878409221
 21
332.9224785746644
 31
0.0
  0
LINE
  5
19D
330
1F
100
AcDbEntity
  8
VISIBLE
100
AcDbLine
 10
414.0309878409221
 20
291.8462995042502
 30
0.0
 11
414.0309878409221
 21
292.816099277522
 31
0.0
  0
LINE
  5
19E
330
1F
100
AcDbEntity
  8
VISIBLE
100
AcDbLine
 10
432.0309878409221
 20
339.0288578718069
 30
0.0
 11
432.0309878409221
 21
332.9224785746644
 31
0.0
  0
LINE
  5
19F
330
1F
100
AcDbEntity
  8
VISIBLE
100
AcDbLine
 10
414.0309878409221
 20
339.0288578718068
 30
0.0
 11
414.0309878409221
 21
339.9986576450786
 31
0.0
  0
LINE
  5
1A0
330
1F
100
AcDbEntity
  8
VISIBLE
100
AcDbLine
 10
432.0309878409221
 20
339.9986576450786
 30
0.0
 11
432.0309878409221
 21
339.0288578718068
 31
0.0
  0
LINE
  5
1A1
330
1F
100
AcDbEntity
  8
VISIBLE
100
AcDbLine
 10
432.0309878409221
 20
292.816099277522
 30
0.0
 11
432.0309878409221
 21
291.8462995042502
 31
0.0
  0
CIRCLE
  5
1A2
330
1F
100
AcDbEntity
  8
VISIBLE
100
AcDbCircle
 10
423.0309878409221
 20
283.9224785746644
 30
0.0
 40
3.25
  0
LINE
  5
1A3
330
1F
100
AcDbEntity
  8
VISIBLE
100
AcDbLine
 10
432.0309878409221
 20
292.8160992775219
 30
0.0
 11
432.0309878409221
 21
298.9224785746644
 31
0.0
  0
LINE
  5
1A4
330
1F
100
AcDbEntity
  8
VISIBLE
100
AcDbLine
 10
414.0309878409221
 20
292.8160992775219
 30
0.0
 11
414.0309878409221
 21
298.9224785746644
 31
0.0
  0
LINE
  5
1A8
330
1F
100
AcDbEntity
  8
VISIBLE
100
AcDbLine
 10
380.8765812907898
 20
25.92353646468537
 30
0.0
 11
368.1486592294319
 21
33.2720056930349
 31
0.0
  0
LINE
  5
1A9
330
1F
100
AcDbEntity
  8
TANGENT_LINES
100
AcDbLine
 10
380.8765812907898
 20
41.73320562716991
 30
0.0
 11
368.1486592294319
 21
49.08167485551945
 31
0.0
  0
LINE
  5
1AA
330
1F
100
AcDbEntity
  8
VISIBLE
100
AcDbLine
 10
412.9136671876409
 20
130.5107317040839
 30
0.0
 11
578.5624241071129
 21
226.148086102468
 31
0.0
  0
LINE
  5
1AB
330
1F
100
AcDbEntity
  8
VISIBLE
100
AcDbLine
 10
391.8862338738643
 20
35.214955438251
 30
0.0
 11
380.8765812907898
 21
25.92353646468537
 31
0.0
  0
LINE
  5
1AC
330
1F
100
AcDbEntity
  8
VISIBLE
100
AcDbLine
 10
368.1486592294319
 20
49.08167485551945
 30
0.0
 11
368.1486592294319
 21
33.2720056930349
 31
0.0
  0
LINE
  5
1AD
330
1F
100
AcDbEntity
  8
VISIBLE
100
AcDbLine
 10
368.1486592294319
 20
82.62023462408766
 30
0.0
 11
366.4303897511487
 21
81.62819127826047
 31
0.0
  0
LINE
  5
1AE
330
1F
100
AcDbEntity
  8
VISIBLE
100
AcDbLine
 10
380.8765812907898
 20
97.31717308078673
 30
0.0
 11
391.8862338738643
 21
103.6735989633091
 31
0.0
  0
LINE
  5
1AF
330
1F
100
AcDbEntity
  8
VISIBLE
100
AcDbLine
 10
391.8862338738643
 20
86.6088204219196
 30
0.0
 11
391.8862338738643
 21
103.6735989633091
 31
0.0
  0
LINE
  5
1B0
330
1F
100
AcDbEntity
  8
VISIBLE
100
AcDbLine
 10
425.6415892489987
 20
123.1622624757344
 30
0.0
 11
591.2903461684707
 21
218.7996168741184
 31
0.0
  0
LINE
  5
1B1
330
1F
100
AcDbEntity
  8
VISIBLE
100
AcDbLine
 10
379.1583118125065
 20
74.27972204991094
 30
0.0
 11
379.1583118125065
 21
46.51883829836826
 31
0.0
  0
LINE
  5
1B2
330
1F
100
AcDbEntity
  8
TANGENT_LINES
100
AcDbLine
 10
368.6833009420364
 20
50.18218859127253
 30
0.0
 11
381.4112230033942
 21
42.833719362923
 31
0.0
  0
LINE
  5
1B3
330
1F
100
AcDbEntity
  8
VISIBLE
100
AcDbLine
 10
391.8862338738643
 20
52.27973397964048
 30
0.0
 11
391.8862338738643
 21
35.214955438251
 31
0.0
  0
LINE
  5
1B4
330
1F
100
AcDbEntity
  8
VISIBLE
100
AcDbLine
 10
422.6415892489987
 20
119.9953337977369
 30
0.0
 11
408.1563078747602
 21
94.90609049562455
 31
0.0
  0
LINE
  5
1B5
330
1F
100
AcDbEntity
  8
VISIBLE
100
AcDbLine
 10
405.1563078747601
 20
91.73916181762708
 30
0.0
 11
394.0782648955426
 21
85.34325072148162
 31
0.0
  0
LINE
  5
1B6
330
1F
100
AcDbEntity
  8
VISIBLE
100
AcDbLine
 10
405.6971095471768
 20
62.78458616824783
 30
0.0
 11
394.0782648955426
 21
56.0764430809544
 31
0.0
  0
LINE
  5
1B7
330
1F
100
AcDbEntity
  8
VISIBLE
100
AcDbLine
 10
380.8765812907898
 20
41.73320562716991
 30
0.0
 11
380.8765812907898
 21
25.92353646468537
 31
0.0
  0
LINE
  5
1B8
330
1F
100
AcDbEntity
  8
VISIBLE
100
AcDbLine
 10
379.1583118125065
 20
46.51883829836826
 30
0.0
 11
380.8765812907898
 21
47.51088164419544
 31
0.0
  0
LINE
  5
1B9
330
1F
100
AcDbEntity
  8
VISIBLE
100
AcDbLine
 10
380.8765812907898
 20
75.27176539573813
 30
0.0
 11
379.1583118125065
 21
74.27972204991094
 31
0.0
  0
LINE
  5
1BA
330
1F
100
AcDbEntity
  8
VISIBLE
100
AcDbLine
 10
368.1486592294319
 20
88.39791064111319
 30
0.0
 11
368.148659229432
 21
104.6656423091363
 31
0.0
  0
LINE
  5
1BB
330
1F
100
AcDbEntity
  8
VISIBLE
100
AcDbLine
 10
380.8765812907898
 20
81.04944141276366
 30
0.0
 11
380.8765812907898
 21
97.31717308078673
 31
0.0
  0
LINE
  5
1BC
330
1F
100
AcDbEntity
  8
VISIBLE
100
AcDbLine
 10
392.4283858134023
 20
99.08763104597661
 30
0.0
 11
391.8862338738643
 21
98.77461947774272
 31
0.0
  0
LINE
  5
1BD
330
1F
100
AcDbEntity
  8
VISIBLE
100
AcDbLine
 10
379.1583118125065
 20
111.0220681916586
 30
0.0
 11
391.8862338738643
 21
103.6735989633091
 31
0.0
  0
LINE
  5
1BE
330
1F
100
AcDbEntity
  8
VISIBLE
100
AcDbLine
 10
368.148659229432
 20
104.6656423091363
 30
0.0
 11
379.1583118125065
 21
111.0220681916586
 31
0.0
  0
LINE
  5
1BF
330
1F
100
AcDbEntity
  8
TANGENT_LINES
100
AcDbLine
 10
368.1486592294319
 20
88.39791064111319
 30
0.0
 11
380.8765812907898
 21
81.04944141276366
 31
0.0
  0
LINE
  5
1C0
330
1F
100
AcDbEntity
  8
VISIBLE
100
AcDbLine
 10
368.3557660106185
 20
87.94013352779263
 30
0.0
 11
381.0836880719764
 21
80.59166429944308
 31
0.0
  0
LINE
  5
1C1
330
1F
100
AcDbEntity
  8
TANGENT_LINES
100
AcDbLine
 10
422.6415892489987
 20
119.9953337977369
 30
0.0
 11
409.9136671876408
 21
127.3438030260864
 31
0.0
  0
LINE
  5
1C2
330
1F
100
AcDbEntity
  8
VISIBLE
100
AcDbLine
 10
591.2903461684707
 20
218.7996168741184
 30
0.0
 11
591.2903461684707
 21
203.4988443621759
 31
0.0
  0
LINE
  5
1C3
330
1F
100
AcDbEntity
  8
TANGENT_LINES
100
AcDbLine
 10
368.1486592294319
 20
82.62023462408766
 30
0.0
 11
380.8765812907898
 21
75.27176539573813
 31
0.0
  0
LINE
  5
1C4
330
1F
100
AcDbEntity
  8
VISIBLE
100
AcDbLine
 10
591.2903461684707
 20
203.4988443621759
 30
0.0
 11
424.4032603289872
 21
62.65717618857123
 31
0.0
  0
LINE
  5
1C5
330
1F
100
AcDbEntity
  8
VISIBLE
100
AcDbLine
 10
409.9136671876408
 20
127.3438030260864
 30
0.0
 11
395.4283858134023
 21
102.2545597239741
 31
0.0
  0
LINE
  5
1C6
330
1F
100
AcDbEntity
  8
VISIBLE
100
AcDbLine
 10
380.8765812907898
 20
97.31717308078673
 30
0.0
 11
368.148659229432
 21
104.6656423091363
 31
0.0
  0
LINE
  5
1C7
330
1F
100
AcDbEntity
  8
VISIBLE
100
AcDbLine
 10
366.4303897511487
 20
81.62819127826047
 30
0.0
 11
379.1583118125065
 21
74.27972204991094
 31
0.0
  0
LINE
  5
1C8
330
1F
100
AcDbEntity
  8
VISIBLE
100
AcDbLine
 10
366.4303897511487
 20
53.86730752671779
 30
0.0
 11
379.1583118125065
 21
46.51883829836826
 31
0.0
  0
LINE
  5
1C9
330
1F
100
AcDbEntity
  8
VISIBLE
100
AcDbLine
 10
366.4303897511487
 20
81.62819127826047
 30
0.0
 11
366.4303897511487
 21
53.86730752671779
 31
0.0
  0
LINE
  5
1CA
330
1F
100
AcDbEntity
  8
TANGENT_LINES
100
AcDbLine
 10
391.8862338738643
 20
86.6088204219196
 30
0.0
 11
394.0782648955426
 21
85.34325072148162
 31
0.0
  0
LINE
  5
1CB
330
1F
100
AcDbEntity
  8
TANGENT_LINES
100
AcDbLine
 10
395.4283858134023
 20
102.2545597239741
 30
0.0
 11
408.1563078747602
 21
94.90609049562455
 31
0.0
  0
LINE
  5
1CC
330
1F
100
AcDbEntity
  8
TANGENT_LINES
100
AcDbLine
 10
405.1563078747601
 20
91.73916181762708
 30
0.0
 11
392.4283858134023
 21
99.08763104597661
 31
0.0
  0
LINE
  5
1CD
330
1F
100
AcDbEntity
  8
TANGENT_LINES
100
AcDbLine
 10
412.9136671876409
 20
130.5107317040839
 30
0.0
 11
425.6415892489987
 21
123.1622624757344
 31
0.0
  0
LINE
  5
1CE
330
1F
100
AcDbEntity
  8
VISIBLE
100
AcDbLine
 10
421.2006168018935
 20
61.42697781897417
 30
0.0
 11
407.945366578501
 21
63.3382087107679
 31
0.0
  0
LINE
  5
1CF
330
1F
100
AcDbEntity
  8
VISIBLE
100
AcDbLine
 10
578.5624241071129
 20
226.148086102468
 30
0.0
 11
591.2903461684707
 21
218.7996168741184
 31
0.0
  0
ELLIPSE
  5
1D0
330
1F
100
AcDbEntity
  8
VISIBLE
100
AcDbEllipse
 10
374.5126202601109
 20
38.93766754445432
 30
0.0
 11
1.625
 21
-2.814582562299426
 31
0.0
210
0.0
220
0.0
230
1.0
 40
0.5773502691896261
 41
0.0
 42
6.283185307179586
  0
ELLIPSE
  5
1D1
330
1F
100
AcDbEntity
  8
VISIBLE
100
AcDbEllipse
 10
368.8557660106185
 20
49.48992314598333
 30
0.0
 11
-0.5
 21
-0.866025403784441
 31
0.0
210
0.0
220
0.0
230
-1.0
 40
0.5773502691896235
 41
0.7853981633974684
 42
2.109806698783041
  0
ELLIPSE
  5
1D2
330
1F
100
AcDbEntity
  8
VISIBLE
100
AcDbEllipse
 10
423.4488738332175
 20
66.87957984706048
 30
0.0
 11
3.0
 21
5.196152422706632
 31
0.0
210
0.0
220
0.0
230
1.0
 40
0.5773502691896262
 41
3.368485456349041
 42
4.153883619746502
  0
ELLIPSE
  5
1D3
330
1F
100
AcDbEntity
  8
VISIBLE
100
AcDbEllipse
 10
405.6971095471768
 20
57.88560668268149
 30
0.0
 11
-3.0
 21
-5.196152422706632
 31
0.0
210
0.0
220
0.0
230
-1.0
 40
0.5773502691896255
 41
2.356194490192345
 42
2.914699850830543
  0
ELLIPSE
  5
1D4
330
1F
100
AcDbEntity
  8
VISIBLE
100
AcDbEllipse
 10
374.5126202601109
 20
91.19344872382878
 30
0.0
 11
-1.625
 21
2.814582562299426
 31
0.0
210
0.0
220
0.0
230
-1.0
 40
0.5773502691896262
 41
0.0
 42
6.283185307179586
  0
ELLIPSE
  5
1D5
330
1F
100
AcDbEntity
  8
VISIBLE
100
AcDbEllipse
 10
425.6415892489987
 20
118.263282990168
 30
0.0
 11
3.0
 21
5.196152422706632
 31
0.0
210
0.0
220
0.0
230
1.0
 40
0.5773502691896262
 41
0.7853981633974613
 42
1.570796326794907
  0
ELLIPSE
  5
1D6
330
1F
100
AcDbEntity
  8
VISIBLE
100
AcDbEllipse
 10
381.5836880719764
 20
81.45768970322753
 30
0.0
 11
0.5
 21
0.8660254037844339
 31
0.0
210
0.0
220
0.0
230
1.0
 40
0.5773502691896273
 41
2.356194490192341
 42
3.680603025577938
  0
ELLIPSE
  5
1D7
330
1F
100
AcDbEntity
  8
VISIBLE
100
AcDbEllipse
 10
368.8557660106185
 20
88.80615893157706
 30
0.0
 11
-0.5
 21
-0.8660254037844339
 31
0.0
210
0.0
220
0.0
230
-1.0
 40
0.5773502691896273
 41
0.0
 42
0.785398163397435
  0
ELLIPSE
  5
1D8
330
1F
100
AcDbEntity
  8
VISIBLE
100
AcDbEllipse
 10
381.5836880719763
 20
42.14145391763379
 30
0.0
 11
0.5
 21
0.866025403784441
 31
0.0
210
0.0
220
0.0
230
1.0
 40
0.5773502691896235
 41
1.031785954806755
 42
2.356194490192299
  0
ELLIPSE
  5
1D9
330
1F
100
AcDbEntity
  8
VISIBLE
100
AcDbEllipse
 10
405.1563078747602
 20
96.63814130319346
 30
0.0
 11
-3.0
 21
-5.196152422706632
 31
0.0
210
0.0
220
0.0
230
-1.0
 40
0.5773502691896262
 41
4.712388980384696
 42
5.497787143782151
  0
ELLIPSE
  5
1DA
330
1F
100
AcDbEntity
  8
VISIBLE
100
AcDbEllipse
 10
394.0782648955426
 20
87.87439012235758
 30
0.0
 11
-1.550000000000011
 21
-2.684678751731767
 31
0.0
210
0.0
220
0.0
230
-1.0
 40
0.5773502691896271
 41
5.497787143782135
 42
7.068583470577048
  0
ELLIPSE
  5
1DB
330
1F
100
AcDbEntity
  8
VISIBLE
100
AcDbEllipse
 10
380.8765812907898
 20
77.80290479661409
 30
0.0
 11
-1.550000000000011
 21
-2.684678751731767
 31
0.0
210
0.0
220
0.0
230
-1.0
 40
0.5773502691896271
 41
2.602582281601654
 42
5.497787143782135
  0
ELLIPSE
  5
1DC
330
1F
100
AcDbEntity
  8
VISIBLE
100
AcDbEllipse
 10
380.8765812907898
 20
44.97974224331949
 30
0.0
 11
1.550000000000011
 21
2.684678751731759
 31
0.0
210
0.0
220
0.0
230
1.0
 40
0.5773502691896283
 41
4.173378608396551
 42
7.068583470577035
  0
ELLIPSE
  5
1DD
330
1F
100
AcDbEntity
  8
VISIBLE
100
AcDbEllipse
 10
368.1486592294319
 20
52.32821147166904
 30
0.0
 11
1.550000000000011
 21
2.684678751731759
 31
0.0
210
0.0
220
0.0
230
1.0
 40
0.5773502691896283
 41
4.173378608396552
 42
4.865816524294312
  0
ELLIPSE
  5
1DE
330
1F
100
AcDbEntity
  8
VISIBLE
100
AcDbEllipse
 10
394.0782648955426
 20
53.54530368007847
 30
0.0
 11
-1.550000000000011
 21
-2.684678751731759
 31
0.0
210
0.0
220
0.0
230
-1.0
 40
0.5773502691896283
 41
0.7853981633974452
 42
2.356194490192344
  0
ELLIPSE
  5
1DF
330
1F
100
AcDbEntity
  8
VISIBLE
100
AcDbEllipse
 10
368.1486592294319
 20
85.15137402496362
 30
0.0
 11
-1.550000000000011
 21
-2.684678751731767
 31
0.0
210
0.0
220
0.0
230
-1.0
 40
0.5773502691896271
 41
3.763994361598368
 42
5.497787143782135
  0
ELLIPSE
  5
1E0
330
1F
100
AcDbEntity
  8
VISIBLE
100
AcDbEllipse
 10
392.4283858134023
 20
103.986610531543
 30
0.0
 11
3.0
 21
5.196152422706632
 31
0.0
210
0.0
220
0.0
230
1.0
 40
0.5773502691896262
 41
3.926990816987227
 42
4.712388980384675
  0
ELLIPSE
  5
1E1
330
1F
100
AcDbEntity
  8
VISIBLE
100
AcDbEllipse
 10
412.9136671876409
 20
125.6117522185176
 30
0.0
 11
-3.0
 21
-5.196152422706632
 31
0.0
210
0.0
220
0.0
230
-1.0
 40
0.5773502691896262
 41
1.570796326794897
 42
2.356194490192359
  0
LINE
  5
1E5
330
1F
100
AcDbEntity
  8
VISIBLE
100
AcDbLine
 10
81.37908983999728
 20
231.8567125485777
 30
0.0
 11
78.94908983999727
 21
231.8567125485777
 31
0.0
  0
LINE
  5
1E6
330
1F
100
AcDbEntity
  8
VISIBLE
100
AcDbLine
 10
81.37908983999728
 20
213.8567125485777
 30
0.0
 11
78.94908983999727
 21
213.8567125485777
 31
0.0
  0
LINE
  5
1E7
330
1F
100
AcDbEntity
  8
VISIBLE
100
AcDbLine
 10
78.94908983999727
 20
231.8567125485777
 30
0.0
 11
78.94908983999727
 21
213.8567125485777
 31
0.0
  0
LINE
  5
1E8
330
1F
100
AcDbEntity
  8
TANGENT_LINES
100
AcDbLine
 10
140.4437305271166
 20
213.8567125485777
 30
0.0
 11
140.4437305271166
 21
231.8567125485777
 31
0.0
  0
LINE
  5
1E9
330
1F
100
AcDbEntity
  8
VISIBLE
100
AcDbLine
 10
81.37908983999728
 20
231.8567125485777
 30
0.0
 11
96.94908983999727
 21
231.8567125485777
 31
0.0
  0
LINE
  5
1EA
330
1F
100
AcDbEntity
  8
VISIBLE
100
AcDbLine
 10
96.94908983999727
 20
231.8567125485777
 30
0.0
 11
96.94908983999727
 21
213.8567125485777
 31
0.0
  0
LINE
  5
1EB
330
1F
100
AcDbEntity
  8
TANGENT_LINES
100
AcDbLine
 10
144.6863712142359
 20
231.8567125485777
 30
0.0
 11
144.6863712142359
 21
213.8567125485777
 31
0.0
  0
LINE
  5
1EC
330
1F
100
AcDbEntity
  8
VISIBLE
100
AcDbLine
 10
115.7158084657587
 20
213.8567125485777
 30
0.0
 11
100.0490898399973
 21
213.8567125485777
 31
0.0
  0
LINE
  5
1ED
330
1F
100
AcDbEntity
  8
VISIBLE
100
AcDbLine
 10
81.37908983999728
 20
213.8567125485777
 30
0.0
 11
81.37908983999728
 21
231.8567125485777
 31
0.0
  0
LINE
  5
1EE
330
1F
100
AcDbEntity
  8
VISIBLE
100
AcDbLine
 10
81.37908983999728
 20
213.8567125485777
 30
0.0
 11
96.94908983999727
 21
213.8567125485777
 31
0.0
  0
LINE
  5
1EF
330
1F
100
AcDbEntity
  8
TANGENT_LINES
100
AcDbLine
 10
119.958449152878
 20
231.8567125485777
 30
0.0
 11
119.958449152878
 21
213.8567125485777
 31
0.0
  0
LINE
  5
1F0
330
1F
100
AcDbEntity
  8
TANGENT_LINES
100
AcDbLine
 10
100.0490898399973
 20
231.8567125485777
 30
0.0
 11
100.0490898399973
 21
213.8567125485777
 31
0.0
  0
LINE
  5
1F1
330
1F
100
AcDbEntity
  8
VISIBLE
100
AcDbLine
 10
378.9490898399973
 20
231.8567125485777
 30
0.0
 11
378.9490898399973
 21
213.8567125485777
 31
0.0
  0
LINE
  5
1F2
330
1F
100
AcDbEntity
  8
VISIBLE
100
AcDbLine
 10
144.6863712142359
 20
213.8567125485777
 30
0.0
 11
378.9490898399973
 21
213.8567125485777
 31
0.0
  0
LINE
  5
1F3
330
1F
100
AcDbEntity
  8
VISIBLE
100
AcDbLine
 10
144.6863712142359
 20
231.8567125485777
 30
0.0
 11
378.9490898399973
 21
231.8567125485777
 31
0.0
  0
LINE
  5
1F4
330
1F
100
AcDbEntity
  8
VISIBLE
100
AcDbLine
 10
140.4437305271166
 20
213.8567125485777
 30
0.0
 11
119.958449152878
 21
213.8567125485777
 31
0.0
  0
LINE
  5
1F5
330
1F
100
AcDbEntity
  8
VISIBLE
100
AcDbLine
 10
140.4437305271166
 20
231.8567125485777
 30
0.0
 11
119.958449152878
 21
231.8567125485777
 31
0.0
  0
LINE
  5
1F6
330
1F
100
AcDbEntity
  8
TANGENT_LINES
100
AcDbLine
 10
115.7158084657587
 20
213.8567125485777
 30
0.0
 11
115.7158084657587
 21
231.8567125485777
 31
0.0
  0
LINE
  5
1F7
330
1F
100
AcDbEntity
  8
VISIBLE
100
AcDbLine
 10
115.7158084657587
 20
231.8567125485777
 30
0.0
 11
100.0490898399973
 21
231.8567125485777
 31
0.0
  0
LINE
  5
1F8
330
1F
100
AcDbEntity
  8
VISIBLE
100
AcDbLine
 10
96.94908983999727
 20
231.8567125485777
 30
0.0
 11
100.0490898399973
 21
231.8567125485777
 31
0.0
  0
LINE
  5
1F9
330
1F
100
AcDbEntity
  8
VISIBLE
100
AcDbLine
 10
115.7158084657587
 20
231.8567125485777
 30
0.0
 11
119.958449152878
 21
231.8567125485777
 31
0.0
  0
LINE
  5
1FA
330
1F
100
AcDbEntity
  8
VISIBLE
100
AcDbLine
 10
100.0490898399973
 20
213.8567125485777
 30
0.0
 11
96.94908983999727
 21
213.8567125485777
 31
0.0
  0
LINE
  5
1FB
330
1F
100
AcDbEntity
  8
VISIBLE
100
AcDbLine
 10
144.6863712142359
 20
213.8567125485777
 30
0.0
 11
140.4437305271166
 21
213.8567125485777
 31
0.0
  0
LINE
  5
1FC
330
1F
100
AcDbEntity
  8
VISIBLE
100
AcDbLine
 10
119.958449152878
 20
213.8567125485777
 30
0.0
 11
115.7158084657587
 21
213.8567125485777
 31
0.0
  0
LINE
  5
1FD
330
1F
100
AcDbEntity
  8
VISIBLE
100
AcDbLine
 10
140.4437305271166
 20
231.8567125485777
 30
0.0
 11
144.6863712142359
 21
231.8567125485777
 31
0.0
  0
LINE
  5
201
330
1F
100
AcDbEntity
  8
VISIBLE
100
AcDbLine
 10
94.55796417257119
 20
94.34736286487617
 30
0.0
 11
78.9879641725712
 21
90.75274512905116
 31
0.0
  0
LINE
  5
202
330
1F
100
AcDbEntity
  8
VISIBLE
100
AcDbLine
 10
376.5579641725712
 20
159.452192762285
 30
0.0
 11
140.5439839934507
 21
104.964072077987
 31
0.0
  0
LINE
  5
203
330
1F
100
AcDbEntity
  8
VISIBLE
100
AcDbLine
 10
376.5579641725712
 20
178.1917354246161
 30
0.0
 11
376.5579641725712
 21
159.452192762285
 31
0.0
  0
LINE
  5
204
330
1F
100
AcDbEntity
  8
VISIBLE
100
AcDbLine
 10
142.2952455468098
 20
178.1917354246161
 30
0.0
 11
376.5579641725712
 21
178.1917354246161
 31
0.0
  0
LINE
  5
205
330
1F
100
AcDbEntity
  8
VISIBLE
100
AcDbLine
 10
78.9879641725712
 20
110.1155563542019
 30
0.0
 11
78.9879641725712
 21
90.75274512905116
 31
0.0
  0
LINE
  5
206
330
1F
100
AcDbEntity
  8
VISIBLE
100
AcDbLine
 10
94.55796417257119
 20
115.2473628648762
 30
0.0
 11
94.55796417257119
 21
94.34736286487617
 31
0.0
  0
LINE
  5
207
330
1F
100
AcDbEntity
  8
VISIBLE
100
AcDbLine
 10
138.0526048596905
 20
176.4343761117354
 30
0.0
 11
117.5673234854519
 21
155.9490947374968
 31
0.0
  0
LINE
  5
208
330
1F
100
AcDbEntity
  8
VISIBLE
100
AcDbLine
 10
113.3246827983326
 20
154.1917354246161
 30
0.0
 11
97.65796417257118
 21
154.1917354246161
 31
0.0
  0
LINE
  5
209
330
1F
100
AcDbEntity
  8
VISIBLE
100
AcDbLine
 10
76.55796417257119
 20
151.1917354246161
 30
0.0
 11
76.55796417257119
 21
117.1917354246161
 31
0.0
  0
LINE
  5
20A
330
1F
100
AcDbEntity
  8
VISIBLE
100
AcDbLine
 10
114.0894918580183
 20
118.3473628648762
 30
0.0
 11
97.65796417257118
 21
118.3473628648762
 31
0.0
  0
LINE
  5
20B
330
1F
100
AcDbEntity
  8
VISIBLE
100
AcDbLine
 10
78.9879641725712
 20
178.1917354246161
 30
0.0
 11
94.55796417257119
 21
178.1917354246161
 31
0.0
  0
LINE
  5
20C
330
1F
100
AcDbEntity
  8
VISIBLE
100
AcDbLine
 10
76.55796417257119
 20
117.1917354246161
 30
0.0
 11
78.9879641725712
 21
117.1917354246161
 31
0.0
  0
LINE
  5
20D
330
1F
100
AcDbEntity
  8
VISIBLE
100
AcDbLine
 10
136.0147620819883
 20
105.7220038897599
 30
0.0
 11
117.2690074434176
 21
117.4356514418148
 31
0.0
  0
LINE
  5
20E
330
1F
100
AcDbEntity
  8
VISIBLE
100
AcDbLine
 10
78.9879641725712
 20
151.1917354246161
 30
0.0
 11
76.55796417257119
 21
151.1917354246161
 31
0.0
  0
LINE
  5
20F
330
1F
100
AcDbEntity
  8
VISIBLE
100
AcDbLine
 10
78.9879641725712
 20
158.2679144950303
 30
0.0
 11
78.9879641725712
 21
178.1917354246161
 31
0.0
  0
LINE
  5
210
330
1F
100
AcDbEntity
  8
VISIBLE
100
AcDbLine
 10
94.55796417257119
 20
157.2917354246161
 30
0.0
 11
94.55796417257119
 21
178.1917354246161
 31
0.0
  0
ARC
  5
211
330
1F
100
AcDbEntity
  8
VISIBLE
100
AcDbCircle
 10
78.9879641725712
 20
114.0917354246161
 30
0.0
 40
3.1
100
AcDbArc
 50
284.1169805713029
 51
90.0
  0
ARC
  5
212
330
1F
100
AcDbEntity
  8
VISIBLE
100
AcDbCircle
 10
-97.65796417257118
 20
115.2473628648762
 30
0.000000000000013
 40
3.1
210
6.123233995736766E-17
220
6.123233995736766E-17
230
-1.0
100
AcDbArc
 50
0.0
 51
90.0
  0
ARC
  5
213
330
1F
100
AcDbEntity
  8
VISIBLE
100
AcDbCircle
 10
-78.9879641725712
 20
154.2917354246161
 30
0.0000000000000143
 40
3.1
210
6.123233995736766E-17
220
6.123233995736766E-17
230
-1.0
100
AcDbArc
 50
104.116980571303
 51
270.0
  0
ARC
  5
214
330
1F
100
AcDbEntity
  8
VISIBLE
100
AcDbCircle
 10
-97.65796417257118
 20
157.2917354246161
 30
0.0000000000000154
 40
3.1
210
6.123233995736766E-17
220
6.123233995736766E-17
230
-1.0
100
AcDbArc
 50
270.0
 51
0.0
  0
ARC
  5
215
330
1F
100
AcDbEntity
  8
VISIBLE
100
AcDbCircle
 10
-113.3246827983326
 20
160.1917354246161
 30
0.0000000000000166
 40
6.0
210
6.123233995736766E-17
220
6.123233995736766E-17
230
-1.0
100
AcDbArc
 50
225.0000000000004
 51
270.0000000000005
  0
ARC
  5
216
330
1F
100
AcDbEntity
  8
VISIBLE
100
AcDbCircle
 10
79.9879641725712
 20
110.1155563542019
 30
0.0
 40
1.0
100
AcDbArc
 50
104.1169805713041
 51
179.9999999999992
  0
ARC
  5
217
330
1F
100
AcDbEntity
  8
VISIBLE
100
AcDbCircle
 10
79.9879641725712
 20
158.2679144950303
 30
0.0000000000000001
 40
1.0
100
AcDbArc
 50
179.9999999999984
 51
255.8830194286965
  0
ARC
  5
218
330
1F
100
AcDbEntity
  8
VISIBLE
100
AcDbCircle
 10
142.2952455468098
 20
172.1917354246161
 30
-0.0000000000000002
 40
6.0
100
AcDbArc
 50
90.0
 51
135.0000000000002
  0
ARC
  5
219
330
1F
100
AcDbEntity
  8
VISIBLE
100
AcDbCircle
 10
-114.0894918580183
 20
112.3473628648762
 30
0.0000000000000143
 40
6.0
210
6.123233995736766E-17
220
6.123233995736766E-17
230
-1.0
100
AcDbArc
 50
90.0
 51
121.9999999999999
  0
ARC
  5
21A
330
1F
100
AcDbEntity
  8
VISIBLE
100
AcDbCircle
 10
139.1942776673875
 20
110.8102924666984
 30
0.0000000000000004
 40
6.0
100
AcDbArc
 50
237.9999999999997
 51
283.0000000000001
  0
LINE
  5
21B
330
1F
100
AcDbEntity
  8
VISIBLE
100
AcDbLine
 10
69.17499206995865
 20
168.6495620271539
 30
0.0
 11
69.15397108489029
 21
168.6290346247467
 31
0.0
  0
LINE
  5
21C
330
1F
100
AcDbEntity
  8
VISIBLE
100
AcDbLine
 10
70.17499206995865
 20
168.6495620271539
 30
0.0
 11
70.15397108489029
 21
168.6290346247467
 31
0.0
  0
LINE
  5
21D
330
1F
100
AcDbEntity
  8
VISIBLE
100
AcDbLine
 10
75.17499206995865
 20
168.6495620271539
 30
0.0
 11
75.15397108489029
 21
168.6290346247467
 31
0.0
  0
LINE
  5
21E
330
1F
100
AcDbEntity
  8
VISIBLE
100
AcDbLine
 10
70.11986131230591
 20
168.3821953618517
 30
0.0
 11
70.09377694680882
 21
168.3747348077761
 31
0.0
  0
LINE
  5
21F
330
1F
100
AcDbEntity
  8
VISIBLE
100
AcDbLine
 10
69.65003315895808
 20
163.7515453562809
 30
0.0
 11
69.6562827928206
 21
163.7407933057385
 31
0.0
  0
LINE
  5
220
330
1F
100
AcDbEntity
  8
VISIBLE
100
AcDbLine
 10
74.65003315895808
 20
163.7515453562809
 30
0.0
 11
74.65628279282059
 21
163.7407933057385
 31
0.0
  0
LINE
  5
221
330
1F
100
AcDbEntity
  8
VISIBLE
100
AcDbLine
 10
78.78796390607717
 20
163.51409920087
 30
0.0
 11
78.96679779666968
 21
163.2058817701266
 31
0.0
  0
LINE
  5
222
330
1F
100
AcDbEntity
  8
VISIBLE
100
AcDbLine
 10
68.65003315895808
 20
163.7515453562809
 30
0.0
 11
68.6562827928206
 21
163.7407933057385
 31
0.0
  0
LINE
  5
223
330
1F
100
AcDbEntity
  8
VISIBLE
100
AcDbLine
 10
69.11986131230591
 20
168.3821953618517
 30
0.0
 11
69.09377694680882
 21
168.3747348077761
 31
0.0
  0
LINE
  5
224
330
1F
100
AcDbEntity
  8
VISIBLE
100
AcDbLine
 10
69.9426246432293
 20
168.6286385123397
 30
0.0
 11
69.93628776323804
 21
168.6395356026398
 31
0.0
  0
LINE
  5
225
330
1F
100
AcDbEntity
  8
VISIBLE
100
AcDbLine
 10
74.9426246432293
 20
168.6286385123397
 30
0.0
 11
74.93628776323806
 21
168.6395356026398
 31
0.0
  0
LINE
  5
226
330
1F
100
AcDbEntity
  8
VISIBLE
100
AcDbLine
 10
78.9426246432293
 20
168.6286385123397
 30
0.0
 11
78.93628776323804
 21
168.6395356026398
 31
0.0
  0
LINE
  5
227
330
1F
100
AcDbEntity
  8
VISIBLE
100
AcDbLine
 10
78.93628776323804
 20
168.6395356026398
 30
0.0
 11
78.78796420885637
 21
168.894805790819
 31
0.0
  0
LINE
  5
228
330
1F
100
AcDbEntity
  8
VISIBLE
100
AcDbLine
 10
75.12662935941289
 20
163.2106078025151
 30
0.0
 11
75.1879645596447
 21
163.3163603407789
 31
0.0
  0
LINE
  5
229
330
1F
100
AcDbEntity
  8
VISIBLE
100
AcDbLine
 10
68.41175957001502
 20
163.7017485873681
 30
0.0
 11
68.43457687064173
 21
163.7409930111781
 31
0.0
  0
LINE
  5
22A
330
1F
100
AcDbEntity
  8
VISIBLE
100
AcDbLine
 10
68.9426246432293
 20
168.6286385123397
 30
0.0
 11
68.93628776323804
 21
168.6395356026398
 31
0.0
  0
LINE
  5
22B
330
1F
100
AcDbEntity
  8
VISIBLE
100
AcDbLine
 10
78.9829641725712
 20
163.1917354246161
 30
0.0
 11
78.9879641725712
 21
163.1917354246161
 31
0.0
  0
LINE
  5
22C
330
1F
100
AcDbEntity
  8
VISIBLE
100
AcDbLine
 10
74.9829641725712
 20
163.1917354246161
 30
0.0
 11
75.1079641725712
 21
163.1917354246161
 31
0.0
  0
LINE
  5
22D
330
1F
100
AcDbEntity
  8
VISIBLE
100
AcDbLine
 10
69.9829641725712
 20
163.1917354246161
 30
0.0
 11
70.1079641725712
 21
163.1917354246161
 31
0.0
  0
LINE
  5
22E
330
1F
100
AcDbEntity
  8
VISIBLE
100
AcDbLine
 10
68.9829641725712
 20
163.1917354246161
 30
0.0
 11
69.1079641725712
 21
163.1917354246161
 31
0.0
  0
LINE
  5
22F
330
1F
100
AcDbEntity
  8
VISIBLE
100
AcDbLine
 10
69.60796417257119
 20
169.1917354246161
 30
0.0
 11
69.48296417257119
 21
169.1917354246161
 31
0.0
  0
LINE
  5
230
330
1F
100
AcDbEntity
  8
VISIBLE
100
AcDbLine
 10
70.55796417257119
 20
169.1917354246161
 30
0.0
 11
70.48296417257119
 21
169.1917354246161
 31
0.0
  0
LINE
  5
231
330
1F
100
AcDbEntity
  8
VISIBLE
100
AcDbLine
 10
74.6079641725712
 20
169.1917354246161
 30
0.0
 11
74.55796417257119
 21
169.1917354246161
 31
0.0
  0
LINE
  5
232
330
1F
100
AcDbEntity
  8
VISIBLE
100
AcDbLine
 10
68.37813003049754
 20
163.673709295344
 30
0.0
 11
68.38241539189549
 21
163.6672847255203
 31
0.0
  0
LINE
  5
233
330
1F
100
AcDbEntity
  8
VISIBLE
100
AcDbLine
 10
68.71189513950864
 20
169.0258672084783
 30
0.0
 11
68.71495484507204
 21
169.0178819587155
 31
0.0
  0
LINE
  5
234
330
1F
100
AcDbEntity
  8
VISIBLE
100
AcDbLine
 10
68.6969964143735
 20
169.0307676664184
 30
0.0
 11
67.8579641725712
 21
168.1917354246161
 31
0.0
  0
LINE
  5
235
330
1F
100
AcDbEntity
  8
VISIBLE
100
AcDbLine
 10
67.8579641725712
 20
164.1917354246161
 30
0.0
 11
68.37476954639321
 21
163.6749300507941
 31
0.0
  0
LINE
  5
236
330
1F
100
AcDbEntity
  8
VISIBLE
100
AcDbLine
 10
97.55796417257119
 20
172.1917354246161
 30
0.0
 11
94.5579641725712
 21
169.1917354246161
 31
0.0
  0
LINE
  5
237
330
1F
100
AcDbEntity
  8
VISIBLE
100
AcDbLine
 10
94.5579641725712
 20
163.191735424616
 30
0.0
 11
97.55796417257119
 21
160.1917354246161
 31
0.0
  0
LINE
  5
238
330
1F
100
AcDbEntity
  8
VISIBLE
100
AcDbLine
 10
97.8579641725712
 20
172.1917354246161
 30
0.0
 11
97.55796417257119
 21
172.1917354246161
 31
0.0
  0
LINE
  5
239
330
1F
100
AcDbEntity
  8
VISIBLE
100
AcDbLine
 10
97.55796417257119
 20
160.1917354246161
 30
0.0
 11
97.8579641725712
 21
160.1917354246161
 31
0.0
  0
SPLINE
  5
23A
330
1F
100
AcDbEntity
  8
VISIBLE
100
AcDbSpline
210
0.0
220
0.0
230
1.0
 70
     8
 71
     3
 72
    11
 73
     7
 74
     0
 42
0.000000001
 43
0.0000000174164629
 40
0.0
 40
0.0
 40
0.0
 40
0.0
 40
0.1963746183607737
 40
0.4703245507466392
 40
0.7422481079823571
 40
1.0
 40
1.0
 40
1.0
 40
1.0
 10
69.15397108489029
 20
168.6290346247467
 30
0.0
 10
69.14520341396869
 20
168.6222832349371
 30
0.0
 10
69.1242045144077
 20
168.6061134040005
 30
0.0
 10
69.05472094273601
 20
168.585967465043
 30
0.0
 10
68.98527451456943
 20
168.5995150619643
 30
0.0
 10
68.95215106752255
 20
168.6265591178951
 30
0.0
 10
68.9360324591209
 20
168.6397193589329
 30
0.0
  0
SPLINE
  5
23B
330
1F
100
AcDbEntity
  8
VISIBLE
100
AcDbSpline
210
0.0
220
0.0
230
1.0
 70
     8
 71
     3
 72
    11
 73
     7
 74
     0
 42
0.000000001
 43
0.0000000174415096
 40
0.0
 40
0.0
 40
0.0
 40
0.0
 40
0.1963746183607907
 40
0.470324550746644
 40
0.7422481079823563
 40
1.0
 40
1.0
 40
1.0
 40
1.0
 10
70.15397108489029
 20
168.6290346247467
 30
0.0
 10
70.14520341396869
 20
168.6222832349371
 30
0.0
 10
70.12420451440768
 20
168.6061134040005
 30
0.0
 10
70.054720942736
 20
168.585967465043
 30
0.0
 10
69.98527451456943
 20
168.5995150619643
 30
0.0
 10
69.95215106752255
 20
168.6265591178951
 30
0.0
 10
69.9360324591209
 20
168.6397193589329
 30
0.0
  0
SPLINE
  5
23C
330
1F
100
AcDbEntity
  8
VISIBLE
100
AcDbSpline
210
0.0
220
0.0
230
1.0
 70
     8
 71
     3
 72
    11
 73
     7
 74
     0
 42
0.000000001
 43
0.0000000175747448
 40
0.0
 40
0.0
 40
0.0
 40
0.0
 40
0.1963746183607828
 40
0.4703245507466398
 40
0.742248107982357
 40
1.0
 40
1.0
 40
1.0
 40
1.0
 10
75.15397108489029
 20
168.6290346247467
 30
0.0
 10
75.14520341396869
 20
168.6222832349371
 30
0.0
 10
75.12420451440768
 20
168.6061134040005
 30
0.0
 10
75.05472094273601
 20
168.585967465043
 30
0.0
 10
74.98527451456943
 20
168.5995150619643
 30
0.0
 10
74.95215106752255
 20
168.6265591178951
 30
0.0
 10
74.9360324591209
 20
168.6397193589329
 30
0.0
  0
SPLINE
  5
23D
330
1F
100
AcDbEntity
  8
VISIBLE
100
AcDbSpline
210
0.0
220
0.0
230
1.0
 70
     8
 71
     3
 72
     9
 73
     5
 74
     0
 42
0.000000001
 43
0.0000000176858054
 40
0.0
 40
0.0
 40
0.0
 40
0.0
 40
0.0874675782859341
 40
1.0
 40
1.0
 40
1.0
 40
1.0
 10
78.98791074863422
 20
168.604306261284
 30
0.0
 10
78.98779911302398
 20
168.6043343128737
 30
0.0
 10
78.9865228045629
 20
168.6046550213031
 30
0.0
 10
78.9601230714819
 20
168.6229890046812
 30
0.0
 10
78.9360324591209
 20
168.6397193589329
 30
0.0
  0
SPLINE
  5
23E
330
1F
100
AcDbEntity
  8
VISIBLE
100
AcDbSpline
210
0.0
220
0.0
230
1.0
 70
     8
 71
     3
 72
    11
 73
     7
 74
     0
 42
0.000000001
 43
0.0000000169603066
 40
0.0
 40
0.0
 40
0.0
 40
0.0
 40
0.2173903009495071
 40
0.4655196287410643
 40
0.7329252618128287
 40
1.0
 40
1.0
 40
1.0
 40
1.0
 10
69.43238479683775
 20
163.7392983702611
 30
0.0
 10
69.44383639441268
 20
163.749553543891
 30
0.0
 10
69.46835884747654
 20
163.7715139745083
 30
0.0
 10
69.52827835613974
 20
163.7908381828936
 30
0.0
 10
69.60205660513232
 20
163.7843587822002
 30
0.0
 10
69.6396849484648
 20
163.7543519555782
 30
0.0
 10
69.65848747234472
 20
163.7393578308267
 30
0.0
  0
SPLINE
  5
23F
330
1F
100
AcDbEntity
  8
VISIBLE
100
AcDbSpline
210
0.0
220
0.0
230
1.0
 70
     8
 71
     3
 72
    10
 73
     6
 74
     0
 42
0.000000001
 43
0.0000000169834523
 40
0.0
 40
0.0
 40
0.0
 40
0.0
 40
0.3410270309764227
 40
0.7302753441961705
 40
1.0
 40
1.0
 40
1.0
 40
1.0
 10
70.43238479683777
 20
163.7392983702611
 30
0.0
 10
70.44329091781253
 20
163.7495363730565
 30
0.0
 10
70.46664528718875
 20
163.7714600340456
 30
0.0
 10
70.52743601783665
 20
163.7885402676094
 30
0.0
 10
70.54885329394077
 20
163.7872157003596
 30
0.0
 10
70.5576196131936
 20
163.7866735408746
 30
0.0
  0
SPLINE
  5
240
330
1F
100
AcDbEntity
  8
VISIBLE
100
AcDbSpline
210
0.0
220
0.0
230
1.0
 70
     8
 71
     3
 72
     9
 73
     5
 74
     0
 42
0.000000001
 43
0.000000017095444
 40
0.0
 40
0.0
 40
0.0
 40
0.0
 40
0.435291887136823
 40
1.0
 40
1.0
 40
1.0
 40
1.0
 10
74.5576196131936
 20
163.7866735408746
 30
0.0
 10
74.57103966635651
 20
163.7852922199974
 30
0.0
 10
74.6018696761947
 20
163.7821188990188
 30
0.0
 10
74.6380539304237
 20
163.7547904357479
 30
0.0
 10
74.65848747234472
 20
163.7393578308267
 30
0.0
  0
SPLINE
  5
241
330
1F
100
AcDbEntity
  8
VISIBLE
100
AcDbSpline
210
0.0
220
0.0
230
1.0
 70
     8
 71
     3
 72
    11
 73
     7
 74
     0
 42
0.000000001
 43
0.0000000169348407
 40
0.0
 40
0.0
 40
0.0
 40
0.0
 40
0.2173903009495191
 40
0.4655196287410658
 40
0.7329252618128067
 40
1.0
 40
1.0
 40
1.0
 40
1.0
 10
68.43238479683775
 20
163.7392983702611
 30
0.0
 10
68.44383639441268
 20
163.749553543891
 30
0.0
 10
68.46835884747655
 20
163.7715139745083
 30
0.0
 10
68.52827835613974
 20
163.7908381828936
 30
0.0
 10
68.6020566051323
 20
163.7843587822002
 30
0.0
 10
68.6396849484648
 20
163.7543519555782
 30
0.0
 10
68.65848747234472
 20
163.7393578308267
 30
0.0
  0
SPLINE
  5
242
330
1F
100
AcDbEntity
  8
VISIBLE
100
AcDbSpline
210
0.0
220
0.0
230
1.0
 70
     8
 71
     3
 72
    14
 73
    10
 74
     0
 42
0.000000001
 43
0.0000000174911207
 40
0.0
 40
0.0
 40
0.0
 40
0.0
 40
0.2843293932741701
 40
0.4690297172209246
 40
0.6369248976828182
 40
0.745273308011233
 40
0.8461295535906663
 40
0.9390904049836372
 40
1.0
 40
1.0
 40
1.0
 40
1.0
 10
70.43760179685032
 20
169.0784793650345
 30
0.0
 10
70.39458727803137
 20
168.9656243261573
 30
0.0
 10
70.32363053534033
 20
168.779458673841
 30
0.0
 10
70.2755999961519
 20
168.6536901909857
 30
0.0
 10
70.22790099584492
 20
168.543513736645
 30
0.0
 10
70.20672870942357
 20
168.5009753707417
 30
0.0
 10
70.18729175363006
 20
168.464417211541
 30
0.0
 10
70.16858247830677
 20
168.4346249437105
 30
0.0
 10
70.16195111499933
 20
168.4255149624204
 30
0.0
 10
70.1593260907475
 20
168.4219087775816
 30
0.0
  0
SPLINE
  5
243
330
1F
100
AcDbEntity
  8
VISIBLE
100
AcDbSpline
210
0.0
220
0.0
230
1.0
 70
     8
 71
     3
 72
    10
 73
     6
 74
     0
 42
0.000000001
 43
0.0000000174205864
 40
0.0
 40
0.0
 40
0.0
 40
0.0
 40
0.2894431769050461
 40
0.664703525138346
 40
1.0
 40
1.0
 40
1.0
 40
1.0
 10
70.1593260907475
 20
168.4219087775816
 30
0.0
 10
70.1567487871248
 20
168.418474410027
 30
0.0
 10
70.15083003366969
 20
168.4105874173378
 30
0.0
 10
70.13511270442018
 20
168.3929060018095
 30
0.0
 10
70.12475084893848
 20
168.3856291511111
 30
0.0
 10
70.11986131230591
 20
168.3821953618517
 30
0.0
  0
SPLINE
  5
244
330
1F
100
AcDbEntity
  8
VISIBLE
100
AcDbSpline
210
0.0
220
0.0
230
1.0
 70
     8
 71
     3
 72
     9
 73
     5
 74
     0
 42
0.000000001
 43
0.0000000169634385
 40
0.0
 40
0.0
 40
0.0
 40
0.0
 40
0.4948604950677369
 40
1.0
 40
1.0
 40
1.0
 40
1.0
 10
69.6562827928206
 20
163.7407933057385
 30
0.0
 10
69.70674292432328
 20
163.653941308776
 30
0.0
 10
69.80871132148894
 20
163.4784332659474
 30
0.0
 10
69.913742432999
 20
163.2973527116681
 30
0.0
 10
69.96679779666968
 20
163.2058817701266
 30
0.0
  0
SPLINE
  5
245
330
1F
100
AcDbEntity
  8
VISIBLE
100
AcDbSpline
210
0.0
220
0.0
230
1.0
 70
     8
 71
     3
 72
     9
 73
     5
 74
     0
 42
0.000000001
 43
0.0000000170998516
 40
0.0
 40
0.0
 40
0.0
 40
0.0
 40
0.4948604950677385
 40
1.0
 40
1.0
 40
1.0
 40
1.0
 10
74.65628279282059
 20
163.7407933057385
 30
0.0
 10
74.70674292432327
 20
163.653941308776
 30
0.0
 10
74.80871132148894
 20
163.4784332659474
 30
0.0
 10
74.91374243299899
 20
163.2973527116681
 30
0.0
 10
74.96679779666967
 20
163.2058817701266
 30
0.0
  0
SPLINE
  5
246
330
1F
100
AcDbEntity
  8
VISIBLE
100
AcDbSpline
210
0.0
220
0.0
230
1.0
 70
     8
 71
     3
 72
     9
 73
     5
 74
     0
 42
0.000000001
 43
0.0000000169377953
 40
0.0
 40
0.0
 40
0.0
 40
0.0
 40
0.4948604950677412
 40
1.0
 40
1.0
 40
1.0
 40
1.0
 10
68.6562827928206
 20
163.7407933057385
 30
0.0
 10
68.7067429243233
 20
163.653941308776
 30
0.0
 10
68.80871132148897
 20
163.4784332659474
 30
0.0
 10
68.913742432999
 20
163.2973527116681
 30
0.0
 10
68.96679779666968
 20
163.2058817701266
 30
0.0
  0
SPLINE
  5
247
330
1F
100
AcDbEntity
  8
VISIBLE
100
AcDbSpline
210
0.0
220
0.0
230
1.0
 70
     8
 71
     3
 72
    14
 73
    10
 74
     0
 42
0.000000001
 43
0.0000000174659827
 40
0.0
 40
0.0
 40
0.0
 40
0.0
 40
0.2843293932741638
 40
0.469029717220914
 40
0.6369248976828085
 40
0.7452733080112173
 40
0.8461295535906523
 40
0.9390904049836137
 40
1.0
 40
1.0
 40
1.0
 40
1.0
 10
69.43760179685032
 20
169.0784793650345
 30
0.0
 10
69.39458727803137
 20
168.9656243261573
 30
0.0
 10
69.32363053534033
 20
168.779458673841
 30
0.0
 10
69.2755999961519
 20
168.6536901909857
 30
0.0
 10
69.22790099584492
 20
168.543513736645
 30
0.0
 10
69.2067287094236
 20
168.5009753707417
 30
0.0
 10
69.18729175363006
 20
168.464417211541
 30
0.0
 10
69.16858247830679
 20
168.4346249437104
 30
0.0
 10
69.16195111499931
 20
168.4255149624204
 30
0.0
 10
69.1593260907475
 20
168.4219087775816
 30
0.0
  0
SPLINE
  5
248
330
1F
100
AcDbEntity
  8
VISIBLE
100
AcDbSpline
210
0.0
220
0.0
230
1.0
 70
     8
 71
     3
 72
    10
 73
     6
 74
     0
 42
0.000000001
 43
0.0000000173955065
 40
0.0
 40
0.0
 40
0.0
 40
0.0
 40
0.2894431769049788
 40
0.6647035251383426
 40
1.0
 40
1.0
 40
1.0
 40
1.0
 10
69.1593260907475
 20
168.4219087775816
 30
0.0
 10
69.1567487871248
 20
168.418474410027
 30
0.0
 10
69.1508300336697
 20
168.4105874173378
 30
0.0
 10
69.13511270442018
 20
168.3929060018095
 30
0.0
 10
69.12475084893848
 20
168.3856291511111
 30
0.0
 10
69.11986131230591
 20
168.3821953618517
 30
0.0
  0
SPLINE
  5
249
330
1F
100
AcDbEntity
  8
VISIBLE
100
AcDbSpline
210
0.0
220
0.0
230
1.0
 70
     8
 71
     3
 72
    21
 73
    17
 74
     0
 42
0.000000001
 43
0.0000000173021957
 40
0.0
 40
0.0
 40
0.0
 40
0.0
 40
0.0085786350732314
 40
0.017074645824044
 40
0.0262756724858261
 40
0.0374797574458173
 40
0.0527839538360733
 40
0.0838011782442798
 40
0.1435087130042962
 40
0.2641171888225549
 40
0.3813372526295482
 40
0.5005150075715303
 40
0.6180701438209117
 40
0.7792037306082159
 40
0.8858523836632082
 40
1.0
 40
1.0
 40
1.0
 40
1.0
 10
68.31669829757195
 20
167.6728743459891
 30
0.0
 10
68.31593065841528
 20
167.672878386264
 30
0.0
 10
68.31440277354679
 20
167.6728864279002
 30
0.0
 10
68.31235428422985
 20
167.6718052663504
 30
0.0
 10
68.31033579515456
 20
167.6700761868152
 30
0.0
 10
68.30784685715555
 20
167.6667516320452
 30
0.0
 10
68.30391467886965
 20
167.6596969545901
 30
0.0
 10
68.29355722688894
 20
167.6252994612502
 30
0.0
 10
68.276965182667
 20
167.5097578781701
 30
0.0
 10
68.26206292467515
 20
167.0562606111622
 30
0.0
 10
68.2620157087304
 20
166.6660131967795
 30
0.0
 10
68.26493175589988
 20
166.2026908392879
 30
0.0
 10
68.26861398262811
 20
165.8077040066214
 30
0.0
 10
68.28682596969068
 20
164.9925015989538
 30
0.0
 10
68.29825978902338
 20
164.6615305716867
 30
0.0
 10
68.3104145232161
 20
164.3900267008576
 30
0.0
 10
68.3166982975712
 20
164.2496641858263
 30
0.0
  0
SPLINE
  5
24A
330
1F
100
AcDbEntity
  8
VISIBLE
100
AcDbSpline
210
0.0
220
0.0
230
1.0
 70
     8
 71
     3
 72
     9
 73
     5
 74
     0
 42
0.000000001
 43
0.0000000174875821
 40
0.0
 40
0.0
 40
0.0
 40
0.0
 40
0.4947482997367802
 40
1.0
 40
1.0
 40
1.0
 40
1.0
 10
69.93628776323804
 20
168.6395356026398
 30
0.0
 10
69.8859867146407
 20
168.7260758286338
 30
0.0
 10
69.78431673694877
 20
168.9009935111
 30
0.0
 10
69.67955859084714
 20
169.0816075144388
 30
0.0
 10
69.62662935941287
 20
169.1728630467171
 30
0.0
  0
SPLINE
  5
24B
330
1F
100
AcDbEntity
  8
VISIBLE
100
AcDbSpline
210
0.0
220
0.0
230
1.0
 70
     8
 71
     3
 72
     9
 73
     5
 74
     0
 42
0.000000001
 43
0.0000000176198512
 40
0.0
 40
0.0
 40
0.0
 40
0.0
 40
0.4947482997367881
 40
1.0
 40
1.0
 40
1.0
 40
1.0
 10
74.93628776323806
 20
168.6395356026398
 30
0.0
 10
74.8859867146407
 20
168.7260758286338
 30
0.0
 10
74.78431673694877
 20
168.9009935111
 30
0.0
 10
74.67955859084714
 20
169.0816075144388
 30
0.0
 10
74.62662935941287
 20
169.1728630467171
 30
0.0
  0
SPLINE
  5
24C
330
1F
100
AcDbEntity
  8
VISIBLE
100
AcDbSpline
210
0.0
220
0.0
230
1.0
 70
     8
 71
     3
 72
     9
 73
     5
 74
     0
 42
0.000000001
 43
0.0000000169497413
 40
0.0
 40
0.0
 40
0.0
 40
0.0
 40
0.506668818957495
 40
1.0
 40
1.0
 40
1.0
 40
1.0
 10
69.12662935941289
 20
163.2106078025151
 30
0.0
 10
69.17963335244102
 20
163.3019918940463
 30
0.0
 10
69.28424605218676
 20
163.4823544664249
 30
0.0
 10
69.38491415606309
 20
163.6555501701219
 30
0.0
 10
69.4345768706417
 20
163.7409930111781
 30
0.0
  0
SPLINE
  5
24D
330
1F
100
AcDbEntity
  8
VISIBLE
100
AcDbSpline
210
0.0
220
0.0
230
1.0
 70
     8
 71
     3
 72
     9
 73
     5
 74
     0
 42
0.000000001
 43
0.000000016975642
 40
0.0
 40
0.0
 40
0.0
 40
0.0
 40
0.5066688189574922
 40
1.0
 40
1.0
 40
1.0
 40
1.0
 10
70.12662935941289
 20
163.2106078025151
 30
0.0
 10
70.17963335244102
 20
163.3019918940463
 30
0.0
 10
70.28424605218675
 20
163.4823544664249
 30
0.0
 10
70.38491415606309
 20
163.6555501701218
 30
0.0
 10
70.43457687064172
 20
163.7409930111781
 30
0.0
  0
SPLINE
  5
24E
330
1F
100
AcDbEntity
  8
VISIBLE
100
AcDbSpline
210
0.0
220
0.0
230
1.0
 70
     8
 71
     3
 72
     9
 73
     5
 74
     0
 42
0.000000001
 43
0.0000000174480563
 40
0.0
 40
0.0
 40
0.0
 40
0.0
 40
0.5950835550356978
 40
1.0
 40
1.0
 40
1.0
 40
1.0
 10
68.93628776323804
 20
168.6395356026398
 30
0.0
 10
68.88091989179553
 20
168.7348086478153
 30
0.0
 10
68.78787771145971
 20
168.8949089301527
 30
0.0
 10
68.73562503296722
 20
168.98496565445
 30
0.0
 10
68.71446706415219
 20
169.0214311030975
 30
0.0
  0
SPLINE
  5
24F
330
1F
100
AcDbEntity
  8
VISIBLE
100
AcDbSpline
210
0.0
220
0.0
230
1.0
 70
     8
 71
     3
 72
    16
 73
    12
 74
     0
 42
0.000000001
 43
0.000000017315512
 40
0.0
 40
0.0
 40
0.0
 40
0.0
 40
0.115707457009628
 40
0.2365207423164135
 40
0.3606332483508319
 40
0.4862008082471185
 40
0.6116419297765568
 40
0.7345227096265912
 40
0.846641287921664
 40
0.9525676718402915
 40
1.0
 40
1.0
 40
1.0
 40
1.0
 10
68.8579641725712
 20
164.08984761695
 30
0.0
 10
68.83676252964555
 20
164.2262411225358
 30
0.0
 10
68.79342367791811
 20
164.505046776225
 30
0.0
 10
68.72788889846481
 20
164.9567872908734
 30
0.0
 10
68.66167069452561
 20
165.4315735592461
 30
0.0
 10
68.59657839573255
 20
165.9198198230971
 30
0.0
 10
68.53537038434081
 20
166.4015275195173
 30
0.0
 10
68.46740329655631
 20
166.8756136637941
 30
0.0
 10
68.40698793631563
 20
167.2371005307278
 30
0.0
 10
68.33434255968493
 20
167.5961498751762
 30
0.0
 10
68.32086635422272
 20
167.6547499303122
 30
0.0
 10
68.31669829757195
 20
167.6728743459891
 30
0.0
  0
SPLINE
  5
250
330
1F
100
AcDbEntity
  8
VISIBLE
100
AcDbSpline
210
0.0
220
0.0
230
1.0
 70
     8
 71
     3
 72
     9
 73
     5
 74
     0
 42
0.000000001
 43
0.0000000169721996
 40
0.0
 40
0.0
 40
0.0
 40
0.0
 40
0.5731640065231985
 40
1.0
 40
1.0
 40
1.0
 40
1.0
 10
68.31669829757118
 20
164.2496641858263
 30
0.0
 10
68.32396055237402
 20
164.1163059464384
 30
0.0
 10
68.33663101793042
 20
163.8836356498564
 30
0.0
 10
68.36571565888204
 20
163.736508470929
 30
0.0
 10
68.37813003049754
 20
163.673709295344
 30
0.0
  0
SPLINE
  5
251
330
1F
100
AcDbEntity
  8
VISIBLE
100
AcDbSpline
210
0.0
220
0.0
230
1.0
 70
     8
 71
     3
 72
    16
 73
    12
 74
     0
 42
0.000000001
 43
0.0000000174457867
 40
0.0
 40
0.0
 40
0.0
 40
0.0
 40
0.061724339854459
 40
0.1461771209986201
 40
0.2454236756877873
 40
0.3584518241457272
 40
0.4817531300726139
 40
0.6147099113216666
 40
0.7517395402819884
 40
0.8943256930966931
 40
1.0
 40
1.0
 40
1.0
 40
1.0
 10
68.71495484507206
 20
169.0178819587155
 30
0.0
 10
68.7209292394513
 20
168.9899202605623
 30
0.0
 10
68.73507794921679
 20
168.9237006696537
 30
0.0
 10
68.74952955086798
 20
168.7470454051676
 30
0.0
 10
68.76431084280614
 20
168.5116568216792
 30
0.0
 10
68.78097152651317
 20
168.200954221878
 30
0.0
 10
68.7981121485737
 20
167.8356156103733
 30
0.0
 10
68.81611850882032
 20
167.4037367089966
 30
0.0
 10
68.83271597536381
 20
166.9641351514958
 30
0.0
 10
68.8494506508323
 20
166.468680191339
 30
0.0
 10
68.85542229029821
 20
166.2744228264594
 30
0.0
 10
68.8579641725712
 20
166.1917354246161
 30
0.0
  0
SPLINE
  5
252
330
1F
100
AcDbEntity
  8
VISIBLE
100
AcDbSpline
210
0.0
220
0.0
230
1.0
 70
    12
 71
     2
 72
    10
 73
     7
 74
     0
 42
0.000000001
 43
0.0000000196573063
 40
0.0632510223994682
 40
0.0632510223994682
 40
0.0632510223994682
 40
0.0666666666666667
 40
0.0666666666666667
 40
0.0722222222222222
 40
0.0722222222222222
 40
0.0743624767518515
 40
0.0743624767518515
 40
0.0743624767518515
 10
68.31669829757196
 20
167.6728743459891
 30
0.0
 41
0.9365449974609248
 10
68.37211079801045
 20
167.0154162882852
 30
0.0
 41
0.917630278927496
 10
68.4204641725712
 20
166.1917354246161
 30
0.0
 41
1.0
 10
68.50379750590454
 20
164.7721846156816
 30
0.0
 41
0.8660254037844389
 10
68.58713083923784
 20
164.0624092112144
 30
0.0
 41
1.0
 10
68.61644664214381
 20
163.8127175808361
 30
0.0
 41
0.9483868474469915
 10
68.65004254295536
 20
163.751528260911
 30
0.0
 41
0.9365411969683908
  0
SPLINE
  5
253
330
1F
100
AcDbEntity
  8
VISIBLE
100
AcDbSpline
210
0.0
220
0.0
230
1.0
 70
    12
 71
     2
 72
     8
 73
     5
 74
     0
 42
0.000000001
 43
0.0000000182489256
 40
0.2711956988657262
 40
0.2711956988657262
 40
0.2711956988657262
 40
0.272222222222222
 40
0.272222222222222
 40
0.2743624767518515
 40
0.2743624767518515
 40
0.2743624767518515
 10
74.55854484572856
 20
164.3311368538877
 30
0.0
 41
0.9596380903128714
 10
74.57345742359362
 20
164.1788698606463
 30
0.0
 41
0.975244950605373
 10
74.58713083923784
 20
164.0624092112144
 30
0.0
 41
1.0
 10
74.61644664214379
 20
163.8127175808361
 30
0.0
 41
0.9483868474469901
 10
74.65004254295536
 20
163.751528260911
 30
0.0
 41
0.9365411969683901
  0
SPLINE
  5
254
330
1F
100
AcDbEntity
  8
VISIBLE
100
AcDbSpline
210
0.0
220
0.0
230
1.0
 70
    12
 71
     2
 72
    12
 73
     9
 74
     0
 42
0.000000001
 43
0.00000002002863
 40
0.1251469128653065
 40
0.1251469128653065
 40
0.1251469128653065
 40
0.1277777777777778
 40
0.1277777777777778
 40
0.1333333333333332
 40
0.1333333333333332
 40
0.1363824795877628
 40
0.1363824795877628
 40
0.1378623655323929
 40
0.1378623655323929
 40
0.1378623655323929
 10
70.17518704610838
 20
168.6494821705431
 30
0.0
 41
0.9332000792543766
 10
70.21730641143631
 20
168.6318674140454
 30
0.0
 41
0.9365555684177147
 10
70.25379750590454
 20
168.3210616380178
 30
0.0
 41
1.0
 10
70.33713083923786
 20
167.6112862335505
 30
0.0
 41
0.8660254037844389
 10
70.4204641725712
 20
166.1917354246161
 30
0.0
 41
1.0
 10
70.46321745586305
 20
165.4634499300373
 30
0.0
 41
0.9264685351169131
 10
70.51251708679202
 20
164.8526509841863
 30
0.0
 41
0.9336520188969764
 10
70.53617195647249
 20
164.5595784156332
 30
0.0
 41
0.9371384822518094
 10
70.55854484572855
 20
164.3311368538878
 30
0.0
 41
0.9596380903128663
  0
SPLINE
  5
255
330
1F
100
AcDbEntity
  8
VISIBLE
100
AcDbSpline
210
0.0
220
0.0
230
1.0
 70
    12
 71
     2
 72
    12
 73
     9
 74
     0
 42
0.000000001
 43
0.0000000200042498
 40
0.0918135795319732
 40
0.0918135795319732
 40
0.0918135795319732
 40
0.0944444444444444
 40
0.0944444444444444
 40
0.1
 40
0.1
 40
0.1055555555555556
 40
0.1055555555555556
 40
0.1076958100851848
 40
0.1076958100851848
 40
0.1076958100851848
 10
69.17518704610836
 20
168.6494821705431
 30
0.0
 41
0.9332000792543769
 10
69.2173064114363
 20
168.6318674140455
 30
0.0
 41
0.936555568417716
 10
69.25379750590454
 20
168.3210616380178
 30
0.0
 41
1.0
 10
69.33713083923784
 20
167.6112862335505
 30
0.0
 41
0.8660254037844389
 10
69.4204641725712
 20
166.1917354246161
 30
0.0
 41
1.0
 10
69.50379750590457
 20
164.7721846156816
 30
0.0
 41
0.8660254037844389
 10
69.58713083923784
 20
164.0624092112144
 30
0.0
 41
1.0
 10
69.6164466421438
 20
163.8127175808361
 30
0.0
 41
0.9483868474469912
 10
69.65004254295538
 20
163.751528260911
 30
0.0
 41
0.9365411969683906
  0
SPLINE
  5
256
330
1F
100
AcDbEntity
  8
VISIBLE
100
AcDbSpline
210
0.0
220
0.0
230
1.0
 70
    12
 71
     2
 72
     6
 73
     3
 74
     0
 42
0.000000001
 43
0.0000000188676272
 40
0.4256928986342633
 40
0.4256928986342633
 40
0.4256928986342633
 40
0.4272205222413934
 40
0.4272205222413934
 40
0.4272205222413934
 10
78.94264448105962
 20
168.6285992335248
 30
0.0
 41
0.9371807898322444
 10
78.9666419972198
 20
168.5810626182797
 30
0.0
 41
0.9463701130880859
 10
78.98873058973602
 20
168.434754715997
 30
0.0
 41
0.9758190045477222
  0
SPLINE
  5
257
330
1F
100
AcDbEntity
  8
VISIBLE
100
AcDbSpline
210
0.0
220
0.0
230
1.0
 70
    12
 71
     2
 72
    12
 73
     9
 74
     0
 42
0.000000001
 43
0.0000000192945272
 40
0.29235956530093
 40
0.29235956530093
 40
0.29235956530093
 40
0.2944444444444445
 40
0.2944444444444445
 40
0.2983125934025071
 40
0.2983125934025071
 40
0.3
 40
0.3
 40
0.3006159140138974
 40
0.3006159140138974
 40
0.3006159140138974
 10
74.94264448105962
 20
168.6285992335248
 30
0.0
 41
0.9371807898322446
 10
74.97528035304957
 20
168.5639509224405
 30
0.0
 41
0.9497222485460909
 10
75.00379750590454
 20
168.3210616380178
 30
0.0
 41
1.0
 10
75.05921576445338
 20
167.8490474355013
 30
0.0
 41
0.9067179349435446
 10
75.12180691963694
 20
166.9511798961289
 30
0.0
 41
0.9433342820785506
 10
75.14761429866621
 20
166.5809741084468
 30
0.0
 41
0.9593074688408944
 10
75.1704641725712
 20
166.1917354246161
 30
0.0
 41
1.0
 10
75.17858576049606
 20
166.053387344113
 30
0.0
 41
0.9851469703632265
 10
75.18718209949743
 20
165.9159125434387
 30
0.0
 41
0.9735872888032169
  0
SPLINE
  5
258
330
1F
100
AcDbEntity
  8
VISIBLE
100
AcDbSpline
210
0.0
220
0.0
230
1.0
 70
    12
 71
     2
 72
    12
 73
     9
 74
     0
 42
0.000000001
 43
0.0000000200269117
 40
0.1256928986342633
 40
0.1256928986342633
 40
0.1256928986342633
 40
0.1277777777777778
 40
0.1277777777777778
 40
0.1333333333333332
 40
0.1333333333333332
 40
0.138888888888889
 40
0.138888888888889
 40
0.1420100561090306
 40
0.1420100561090306
 40
0.1420100561090306
 10
69.94264448105963
 20
168.6285992335248
 30
0.0
 41
0.9371807898322456
 10
69.97528035304957
 20
168.5639509224405
 30
0.0
 41
0.949722248546093
 10
70.00379750590454
 20
168.3210616380178
 30
0.0
 41
1.0
 10
70.08713083923787
 20
167.6112862335505
 30
0.0
 41
0.8660254037844389
 10
70.1704641725712
 20
166.1917354246161
 30
0.0
 41
1.0
 10
70.25379750590453
 20
164.7721846156816
 30
0.0
 41
0.8660254037844389
 10
70.33713083923784
 20
164.0624092112144
 30
0.0
 41
1.0
 10
70.38097615211001
 20
163.6889653150804
 30
0.0
 41
0.9247317187528494
 10
70.43149338223101
 20
163.7383908074001
 30
0.0
 41
0.9340363986779026
  0
SPLINE
  5
259
330
1F
100
AcDbEntity
  8
VISIBLE
100
AcDbSpline
210
0.0
220
0.0
230
1.0
 70
    12
 71
     2
 72
    12
 73
     9
 74
     0
 42
0.000000001
 43
0.0000000199977605
 40
0.09235956530093
 40
0.09235956530093
 40
0.09235956530093
 40
0.0944444444444444
 40
0.0944444444444444
 40
0.1
 40
0.1
 40
0.1055555555555556
 40
0.1055555555555556
 40
0.1086767227756973
 40
0.1086767227756973
 40
0.1086767227756973
 10
68.94264448105962
 20
168.6285992335248
 30
0.0
 41
0.9371807898322462
 10
68.97528035304957
 20
168.5639509224405
 30
0.0
 41
0.9497222485460941
 10
69.00379750590454
 20
168.3210616380178
 30
0.0
 41
1.0
 10
69.08713083923786
 20
167.6112862335505
 30
0.0
 41
0.8660254037844389
 10
69.1704641725712
 20
166.1917354246161
 30
0.0
 41
1.0
 10
69.25379750590452
 20
164.7721846156816
 30
0.0
 41
0.8660254037844389
 10
69.33713083923784
 20
164.0624092112144
 30
0.0
 41
1.0
 10
69.38097615211
 20
163.6889653150804
 30
0.0
 41
0.9247317187528473
 10
69.43149338223101
 20
163.7383908074001
 30
0.0
 41
0.934036398677903
  0
SPLINE
  5
25A
330
1F
100
AcDbEntity
  8
VISIBLE
100
AcDbSpline
210
0.0
220
0.0
230
1.0
 70
    12
 71
     2
 72
     8
 73
     5
 74
     0
 42
0.000000001
 43
0.0000000182954332
 40
0.0714757965582163
 40
0.0714757965582163
 40
0.0714757965582163
 40
0.0722222222222222
 40
0.0722222222222222
 40
0.0753433894423639
 40
0.0753433894423639
 40
0.0753433894423639
 10
68.31669829757118
 20
164.2496641858263
 30
0.0
 41
0.9688361910625491
 10
68.32725674809996
 20
164.1465098555881
 30
0.0
 41
0.9819996261507777
 10
68.33713083923784
 20
164.0624092112144
 30
0.0
 41
1.0
 10
68.38097615211002
 20
163.6889653150804
 30
0.0
 41
0.9247317187528488
 10
68.43149338223103
 20
163.7383908074001
 30
0.0
 41
0.9340363986779028
  0
SPLINE
  5
25B
330
1F
100
AcDbEntity
  8
VISIBLE
100
AcDbSpline
210
0.0
220
0.0
230
1.0
 70
    12
 71
     2
 72
    10
 73
     7
 74
     0
 42
0.000000001
 43
0.0000000189300039
 40
0.4018805674514696
 40
0.4018805674514696
 40
0.4018805674514696
 40
0.4055555555555555
 40
0.4055555555555555
 40
0.4078209056107815
 40
0.4078209056107815
 40
0.4083333333333333
 40
0.4083333333333333
 40
0.4083333333333333
 10
78.78766317139058
 20
165.1604043224401
 30
0.0
 41
0.9400012343964518
 10
78.84724906589803
 20
164.1380265701536
 30
0.0
 41
0.911376091478457
 10
78.89963083923784
 20
163.5936592132628
 30
0.0
 41
1.0
 10
78.93075913488127
 20
163.2701644756183
 30
0.0
 41
0.945370115391555
 10
78.96652778012346
 20
163.2063594380659
 30
0.0
 41
0.9352923231444135
 10
78.97472589690499
 20
163.1917354246161
 30
0.0
 41
0.9330127018922189
 10
78.9829641725712
 20
163.1917354246161
 30
0.0
 41
0.9330127018922192
  0
SPLINE
  5
25C
330
1F
100
AcDbEntity
  8
VISIBLE
100
AcDbSpline
210
0.0
220
0.0
230
1.0
 70
    12
 71
     2
 72
    14
 73
    11
 74
     0
 42
0.000000001
 43
0.0000000202018938
 40
0.2608178187235403
 40
0.2608178187235403
 40
0.2608178187235403
 40
0.261111111111111
 40
0.261111111111111
 40
0.2666666666666665
 40
0.2666666666666665
 40
0.272222222222222
 40
0.272222222222222
 40
0.2744875722774482
 40
0.2744875722774482
 40
0.275
 40
0.275
 40
0.275
 10
74.55851098232209
 20
168.8658386705312
 30
0.0
 41
0.9866010484358769
 10
74.56246038657795
 20
168.8296881497395
 30
0.0
 41
0.9929271287443812
 10
74.56629750590454
 20
168.7898116359694
 30
0.0
 41
1.0
 10
74.64963083923787
 20
167.9237862321849
 30
0.0
 41
0.8660254037844389
 10
74.7329641725712
 20
166.1917354246161
 30
0.0
 41
1.0
 10
74.81629750590453
 20
164.4596846170472
 30
0.0
 41
0.8660254037844389
 10
74.89963083923784
 20
163.5936592132628
 30
0.0
 41
1.0
 10
74.93075913488126
 20
163.2701644756183
 30
0.0
 41
0.9453701153915559
 10
74.96652778012344
 20
163.2063594380659
 30
0.0
 41
0.9352923231444139
 10
74.97472589690496
 20
163.1917354246161
 30
0.0
 41
0.9330127018922193
 10
74.98296417257117
 20
163.1917354246161
 30
0.0
 41
0.9330127018922192
  0
SPLINE
  5
25D
330
1F
100
AcDbEntity
  8
VISIBLE
100
AcDbSpline
210
0.0
220
0.0
230
1.0
 70
    12
 71
     2
 72
     8
 73
     5
 74
     0
 42
0.000000001
 43
0.0000000187635487
 40
0.1235471394092179
 40
0.1235471394092179
 40
0.1235471394092179
 40
0.125
 40
0.125
 40
0.127484485390207
 40
0.127484485390207
 40
0.127484485390207
 10
70.43714888006774
 20
169.0761609665905
 30
0.0
 41
0.9513377595521335
 10
70.4596066032503
 20
169.1917354246161
 30
0.0
 41
0.9330127018922196
 10
70.4829641725712
 20
169.1917354246161
 30
0.0
 41
0.9330127018922194
 10
70.52290712380598
 20
169.1917354246161
 30
0.0
 41
0.9330127018922191
 10
70.55851098232209
 20
168.8658386705313
 30
0.0
 41
0.9866010484358736
  0
SPLINE
  5
25E
330
1F
100
AcDbEntity
  8
VISIBLE
100
AcDbSpline
210
0.0
220
0.0
230
1.0
 70
    12
 71
     2
 72
    16
 73
    13
 74
     0
 42
0.000000001
 43
0.0000000200508661
 40
0.0902138060758845
 40
0.0902138060758845
 40
0.0902138060758845
 40
0.0916666666666666
 40
0.0916666666666666
 40
0.0944444444444444
 40
0.0944444444444444
 40
0.1
 40
0.1
 40
0.1055555555555556
 40
0.1055555555555556
 40
0.1078209056107815
 40
0.1078209056107815
 40
0.1083333333333333
 40
0.1083333333333333
 40
0.1083333333333333
 10
69.43714888006772
 20
169.0761609665905
 30
0.0
 41
0.9513377595521335
 10
69.4596066032503
 20
169.1917354246161
 30
0.0
 41
0.9330127018922194
 10
69.4829641725712
 20
169.1917354246161
 30
0.0
 41
0.9330127018922194
 10
69.52762237130973
 20
169.1917354246161
 30
0.0
 41
0.9330127018922194
 10
69.56629750590454
 20
168.7898116359694
 30
0.0
 41
1.0
 10
69.64963083923787
 20
167.9237862321849
 30
0.0
 41
0.8660254037844389
 10
69.7329641725712
 20
166.1917354246161
 30
0.0
 41
1.0
 10
69.81629750590453
 20
164.4596846170472
 30
0.0
 41
0.8660254037844389
 10
69.89963083923784
 20
163.5936592132628
 30
0.0
 41
1.0
 10
69.93075913488126
 20
163.2701644756183
 30
0.0
 41
0.9453701153915568
 10
69.96652778012344
 20
163.2063594380659
 30
0.0
 41
0.9352923231444144
 10
69.97472589690497
 20
163.1917354246161
 30
0.0
 41
0.9330127018922194
 10
69.98296417257119
 20
163.1917354246161
 30
0.0
 41
0.9330127018922195
  0
SPLINE
  5
25F
330
1F
100
AcDbEntity
  8
VISIBLE
100
AcDbSpline
210
0.0
220
0.0
230
1.0
 70
    12
 71
     2
 72
    10
 73
     7
 74
     0
 42
0.000000001
 43
0.0000000180974322
 40
0.0707612016815592
 40
0.0707612016815592
 40
0.0707612016815592
 40
0.0722222222222222
 40
0.0722222222222222
 40
0.0744875722774481
 40
0.0744875722774481
 40
0.075
 40
0.075
 40
0.075
 10
68.85796417257119
 20
164.08984761695
 30
0.0
 41
0.9480652107226135
 10
68.87995850777952
 20
163.7981000787976
 30
0.0
 41
0.9647668653403659
 10
68.89963083923784
 20
163.5936592132628
 30
0.0
 41
1.0
 10
68.93075913488127
 20
163.2701644756183
 30
0.0
 41
0.9453701153915572
 10
68.96652778012347
 20
163.2063594380659
 30
0.0
 41
0.9352923231444146
 10
68.97472589690499
 20
163.1917354246161
 30
0.0
 41
0.9330127018922196
 10
68.9829641725712
 20
163.1917354246161
 30
0.0
 41
0.9330127018922196
  0
SPLINE
  5
260
330
1F
100
AcDbEntity
  8
VISIBLE
100
AcDbSpline
210
0.0
220
0.0
230
1.0
 70
    12
 71
     2
 72
    10
 73
     7
 74
     0
 42
0.000000001
 43
0.0000000196371952
 40
0.1
 40
0.1
 40
0.1
 40
0.1055555555555556
 40
0.1055555555555556
 40
0.1083333333333333
 40
0.1083333333333333
 40
0.1089235966455604
 40
0.1089235966455604
 40
0.1089235966455604
 10
68.8579641725712
 20
166.1917354246161
 30
0.0
 41
1.0
 10
68.94129750590456
 20
164.4596846170472
 30
0.0
 41
0.8660254037844389
 10
69.02463083923784
 20
163.5936592132628
 30
0.0
 41
1.0
 10
69.06330597383268
 20
163.1917354246161
 30
0.0
 41
0.9330127018922193
 10
69.1079641725712
 20
163.1917354246161
 30
0.0
 41
0.9330127018922194
 10
69.11745380724118
 20
163.1917354246161
 30
0.0
 41
0.9330127018922194
 10
69.12688211158019
 20
163.2111240522457
 30
0.0
 41
0.9360374488159678
  0
SPLINE
  5
261
330
1F
100
AcDbEntity
  8
VISIBLE
100
AcDbSpline
210
0.0
220
0.0
230
1.0
 70
    12
 71
     2
 72
     8
 73
     5
 74
     0
 42
0.000000001
 43
0.0000000193083004
 40
0.4309776709006302
 40
0.4309776709006302
 40
0.4309776709006302
 40
0.4333333333333335
 40
0.4333333333333335
 40
0.4375984023835791
 40
0.4375984023835791
 40
0.4375984023835791
 10
78.78818102955967
 20
167.4755432359034
 30
0.0
 41
0.934559593000889
 10
78.82552014595335
 20
166.8660718546668
 30
0.0
 41
0.9431921938165115
 10
78.8579641725712
 20
166.1917354246161
 30
0.0
 41
1.0
 10
78.91972097680596
 20
164.9081443528433
 30
0.0
 41
0.8971460373091347
 10
78.98815526695128
 20
164.0217979564076
 30
0.0
 41
0.9522166056867225
  0
SPLINE
  5
262
330
1F
100
AcDbEntity
  8
VISIBLE
100
AcDbSpline
210
0.0
220
0.0
230
1.0
 70
    12
 71
     2
 72
    18
 73
    15
 74
     0
 42
0.000000001
 43
0.0000000202069834
 40
0.2916666666666666
 40
0.2916666666666666
 40
0.2916666666666666
 40
0.2922569299788937
 40
0.2922569299788937
 40
0.2944444444444445
 40
0.2944444444444445
 40
0.3
 40
0.3
 40
0.3055555555555555
 40
0.3055555555555555
 40
0.3068646688933257
 40
0.3068646688933257
 40
0.3083333333333333
 40
0.3083333333333333
 40
0.3089235966455604
 40
0.3089235966455604
 40
0.3089235966455604
 10
74.6079641725712
 20
169.1917354246161
 30
0.0
 41
0.9330127018922194
 10
74.61745380724118
 20
169.1917354246161
 30
0.0
 41
0.9330127018922187
 10
74.62688211158017
 20
169.1723467969865
 30
0.0
 41
0.9360374488159666
 10
74.66129831682514
 20
169.1015723539978
 30
0.0
 41
0.9472471538971841
 10
74.69129750590454
 20
168.7898116359694
 30
0.0
 41
1.0
 10
74.77463083923787
 20
167.9237862321849
 30
0.0
 41
0.8660254037844389
 10
74.8579641725712
 20
166.1917354246161
 30
0.0
 41
1.0
 10
74.94129750590453
 20
164.4596846170472
 30
0.0
 41
0.8660254037844389
 10
75.02463083923784
 20
163.5936592132628
 30
0.0
 41
1.0
 10
75.04219109457468
 20
163.4111676866391
 30
0.0
 41
0.9684301724509289
 10
75.06167001862173
 20
163.3097881967033
 30
0.0
 41
0.951738598535472
 10
75.08435252553205
 20
163.1917354246161
 30
0.0
 41
0.9330127018922187
 10
75.1079641725712
 20
163.1917354246161
 30
0.0
 41
0.9330127018922194
 10
75.11745380724116
 20
163.1917354246161
 30
0.0
 41
0.9330127018922196
 10
75.12688211158016
 20
163.2111240522457
 30
0.0
 41
0.9360374488159684
  0
SPLINE
  5
263
330
1F
100
AcDbEntity
  8
VISIBLE
100
AcDbSpline
210
0.0
220
0.0
230
1.0
 70
    12
 71
     2
 72
    16
 73
    13
 74
     0
 42
0.000000001
 43
0.0000000200531794
 40
0.1255902633122271
 40
0.1255902633122271
 40
0.1255902633122271
 40
0.1263888888888889
 40
0.1263888888888889
 40
0.1277777777777778
 40
0.1277777777777778
 40
0.1333333333333332
 40
0.1333333333333332
 40
0.138888888888889
 40
0.138888888888889
 40
0.1416666666666666
 40
0.1416666666666666
 40
0.1422569299788937
 40
0.1422569299788937
 40
0.1422569299788937
 10
69.62688211158016
 20
169.1723467969864
 30
0.0
 41
0.936037448815968
 10
69.63954202381908
 20
169.1463126008682
 30
0.0
 41
0.9401299278947033
 10
69.65183492670174
 20
169.0859392263505
 30
0.0
 41
0.9497595264191638
 10
69.67263006942622
 20
168.9838093265344
 30
0.0
 41
0.9665063509461089
 10
69.69129750590454
 20
168.7898116359694
 30
0.0
 41
1.0
 10
69.77463083923784
 20
167.9237862321849
 30
0.0
 41
0.8660254037844389
 10
69.8579641725712
 20
166.1917354246161
 30
0.0
 41
1.0
 10
69.94129750590452
 20
164.4596846170472
 30
0.0
 41
0.8660254037844389
 10
70.02463083923784
 20
163.5936592132628
 30
0.0
 41
1.0
 10
70.06330597383264
 20
163.1917354246161
 30
0.0
 41
0.9330127018922211
 10
70.10796417257119
 20
163.1917354246161
 30
0.0
 41
0.9330127018922194
 10
70.11745380724116
 20
163.1917354246161
 30
0.0
 41
0.9330127018922191
 10
70.12688211158016
 20
163.2111240522457
 30
0.0
 41
0.9360374488159673
  0
LINE
  5
264
330
1F
100
AcDbEntity
  8
VISIBLE
100
AcDbLine
 10
68.8579641725712
 20
166.1917354246161
 30
0.0
 11
68.8579641725712
 21
164.08984761695
 31
0.0
  0
LINE
  5
265
330
1F
100
AcDbEntity
  8
VISIBLE
100
AcDbLine
 10
67.8579641725712
 20
164.1917354246161
 30
0.0
 11
67.8579641725712
 21
168.1917354246161
 31
0.0
  0
LINE
  5
266
330
1F
100
AcDbEntity
  8
VISIBLE
100
AcDbLine
 10
97.8579641725712
 20
172.1917354246161
 30
0.0
 11
97.8579641725712
 21
160.1917354246161
 31
0.0
  0
LINE
  5
267
330
1F
100
AcDbEntity
  8
VISIBLE
100
AcDbLine
 10
97.55796417257119
 20
172.1917354246161
 30
0.0
 11
97.55796417257119
 21
160.1917354246161
 31
0.0
  0
LINE
  5
268
330
1F
100
AcDbEntity
  8
VISIBLE
100
AcDbLine
 10
78.96679779666968
 20
105.1775890791056
 30
0.0
 11
78.78796390607715
 21
104.8693716483621
 31
0.0
  0
LINE
  5
269
330
1F
100
AcDbEntity
  8
VISIBLE
100
AcDbLine
 10
69.44262464322931
 20
104.6286385123397
 30
0.0
 11
69.4345768706417
 21
104.642477838054
 31
0.0
  0
LINE
  5
26A
330
1F
100
AcDbEntity
  8
VISIBLE
100
AcDbLine
 10
70.44262464322931
 20
104.6286385123397
 30
0.0
 11
70.43457687064172
 21
104.642477838054
 31
0.0
  0
LINE
  5
26B
330
1F
100
AcDbEntity
  8
VISIBLE
100
AcDbLine
 10
75.1879645596447
 20
105.0671105084532
 30
0.0
 11
75.12662935941289
 21
105.1728630467171
 31
0.0
  0
LINE
  5
26C
330
1F
100
AcDbEntity
  8
VISIBLE
100
AcDbLine
 10
78.78796420885637
 20
99.4886650584131
 30
0.0
 11
78.93628776323804
 21
99.74393524659237
 31
0.0
  0
LINE
  5
26D
330
1F
100
AcDbEntity
  8
VISIBLE
100
AcDbLine
 10
68.44262464322931
 20
104.6286385123397
 30
0.0
 11
68.43457687064172
 21
104.642477838054
 31
0.0
  0
LINE
  5
26E
330
1F
100
AcDbEntity
  8
VISIBLE
100
AcDbLine
 10
68.43457687064172
 20
104.642477838054
 30
0.0
 11
68.41175957001502
 21
104.681722261864
 31
0.0
  0
LINE
  5
26F
330
1F
100
AcDbEntity
  8
VISIBLE
100
AcDbLine
 10
68.37476954639321
 20
104.7085407984381
 30
0.0
 11
67.8579641725712
 21
104.1917354246161
 31
0.0
  0
LINE
  5
270
330
1F
100
AcDbEntity
  8
VISIBLE
100
AcDbLine
 10
67.8579641725712
 20
100.1917354246161
 30
0.0
 11
68.6969964143735
 21
99.35270318281377
 31
0.0
  0
LINE
  5
271
330
1F
100
AcDbEntity
  8
VISIBLE
100
AcDbLine
 10
68.39627969699747
 20
104.7083202640297
 30
0.0
 11
68.41311473528913
 21
104.6371602284926
 31
0.0
  0
LINE
  5
272
330
1F
100
AcDbEntity
  8
VISIBLE
100
AcDbLine
 10
68.69698560833052
 20
99.35349918970012
 30
0.0
 11
68.69945804172869
 21
99.35024157528511
 31
0.0
  0
LINE
  5
273
330
1F
100
AcDbEntity
  8
VISIBLE
100
AcDbLine
 10
74.55796417257118
 20
99.19173542461607
 30
0.0
 11
74.6079641725712
 21
99.19173542461607
 31
0.0
  0
LINE
  5
274
330
1F
100
AcDbEntity
  8
VISIBLE
100
AcDbLine
 10
70.4829641725712
 20
99.19173542461607
 30
0.0
 11
70.55796417257118
 21
99.19173542461607
 31
0.0
  0
LINE
  5
275
330
1F
100
AcDbEntity
  8
VISIBLE
100
AcDbLine
 10
69.4829641725712
 20
99.19173542461607
 30
0.0
 11
69.6079641725712
 21
99.19173542461607
 31
0.0
  0
LINE
  5
276
330
1F
100
AcDbEntity
  8
VISIBLE
100
AcDbLine
 10
69.10796417257122
 20
105.1917354246161
 30
0.0
 11
68.9829641725712
 21
105.1917354246161
 31
0.0
  0
LINE
  5
277
330
1F
100
AcDbEntity
  8
VISIBLE
100
AcDbLine
 10
70.1079641725712
 20
105.1917354246161
 30
0.0
 11
69.9829641725712
 21
105.1917354246161
 31
0.0
  0
LINE
  5
278
330
1F
100
AcDbEntity
  8
VISIBLE
100
AcDbLine
 10
75.1079641725712
 20
105.1917354246161
 30
0.0
 11
74.9829641725712
 21
105.1917354246161
 31
0.0
  0
LINE
  5
279
330
1F
100
AcDbEntity
  8
VISIBLE
100
AcDbLine
 10
78.9879641725712
 20
105.1917354246161
 30
0.0
 11
78.9829641725712
 21
105.1917354246161
 31
0.0
  0
LINE
  5
27A
330
1F
100
AcDbEntity
  8
VISIBLE
100
AcDbLine
 10
97.55796417257119
 20
108.1917354246161
 30
0.0
 11
94.5579641725712
 21
105.1917354246161
 31
0.0
  0
LINE
  5
27B
330
1F
100
AcDbEntity
  8
VISIBLE
100
AcDbLine
 10
94.5579641725712
 20
99.19173542461604
 30
0.0
 11
97.55796417257119
 21
96.19173542461607
 31
0.0
  0
LINE
  5
27C
330
1F
100
AcDbEntity
  8
VISIBLE
100
AcDbLine
 10
97.8579641725712
 20
108.1917354246161
 30
0.0
 11
97.55796417257119
 21
108.1917354246161
 31
0.0
  0
LINE
  5
27D
330
1F
100
AcDbEntity
  8
VISIBLE
100
AcDbLine
 10
97.55796417257119
 20
96.19173542461607
 30
0.0
 11
97.8579641725712
 21
96.19173542461607
 31
0.0
  0
SPLINE
  5
27E
330
1F
100
AcDbEntity
  8
VISIBLE
100
AcDbSpline
210
0.0
220
0.0
230
1.0
 70
     8
 71
     3
 72
    11
 73
     7
 74
     0
 42
0.000000001
 43
0.000000011352605
 40
0.0
 40
0.0
 40
0.0
 40
0.0
 40
0.2670747381871638
 40
0.5344803712589299
 40
0.7826096990504857
 40
1.0
 40
1.0
 40
1.0
 40
1.0
 10
69.65848747234472
 20
104.6441130184054
 30
0.0
 10
69.6396849484648
 20
104.6291188936539
 30
0.0
 10
69.60205660513232
 20
104.599112067032
 30
0.0
 10
69.52827835613974
 20
104.5926326663385
 30
0.0
 10
69.46835884747654
 20
104.6119568747238
 30
0.0
 10
69.44383639441268
 20
104.6339173053411
 30
0.0
 10
69.43238479683775
 20
104.644172478971
 30
0.0
  0
SPLINE
  5
27F
330
1F
100
AcDbEntity
  8
VISIBLE
100
AcDbSpline
210
0.0
220
0.0
230
1.0
 70
     8
 71
     3
 72
    10
 73
     6
 74
     0
 42
0.000000001
 43
0.0000000113874853
 40
0.0
 40
0.0
 40
0.0
 40
0.0
 40
0.2697246558037613
 40
0.6589729690235582
 40
1.0
 40
1.0
 40
1.0
 40
1.0
 10
70.55761961319357
 20
104.5967973083575
 30
0.0
 10
70.54885329394077
 20
104.5962551488725
 30
0.0
 10
70.52743601783665
 20
104.5949305816228
 30
0.0
 10
70.46664528718875
 20
104.6120108151866
 30
0.0
 10
70.44329091781253
 20
104.6339344761757
 30
0.0
 10
70.43238479683777
 20
104.644172478971
 30
0.0
  0
SPLINE
  5
280
330
1F
100
AcDbEntity
  8
VISIBLE
100
AcDbSpline
210
0.0
220
0.0
230
1.0
 70
     8
 71
     3
 72
     9
 73
     5
 74
     0
 42
0.000000001
 43
0.000000011554106
 40
0.0
 40
0.0
 40
0.0
 40
0.0
 40
0.5647081128630949
 40
1.0
 40
1.0
 40
1.0
 40
1.0
 10
74.65848747234472
 20
104.6441130184054
 30
0.0
 10
74.6380539304237
 20
104.6286804134843
 30
0.0
 10
74.6018696761947
 20
104.6013519502134
 30
0.0
 10
74.57103966635648
 20
104.5981786292348
 30
0.0
 10
74.55761961319357
 20
104.5967973083575
 30
0.0
  0
SPLINE
  5
281
330
1F
100
AcDbEntity
  8
VISIBLE
100
AcDbSpline
210
0.0
220
0.0
230
1.0
 70
     8
 71
     3
 72
    11
 73
     7
 74
     0
 42
0.000000001
 43
0.0000000108881223
 40
0.0
 40
0.0
 40
0.0
 40
0.0
 40
0.2414753979403337
 40
0.4962275500151348
 40
0.7528781158782059
 40
1.0
 40
1.0
 40
1.0
 40
1.0
 10
68.9360324591209
 20
99.74375149029927
 30
0.0
 10
68.95206852890743
 20
99.75698801503847
 30
0.0
 10
68.98502236060175
 20
99.78418883258789
 30
0.0
 10
69.05579794091763
 20
99.7965080027235
 30
0.0
 10
69.1265131229517
 20
99.77922601783611
 30
0.0
 10
69.15903748330054
 20
99.74882286562625
 30
0.0
 10
69.17499206995865
 20
99.73390882207828
 30
0.0
  0
SPLINE
  5
282
330
1F
100
AcDbEntity
  8
VISIBLE
100
AcDbSpline
210
0.0
220
0.0
230
1.0
 70
     8
 71
     3
 72
    11
 73
     7
 74
     0
 42
0.000000001
 43
0.0000000109281612
 40
0.0
 40
0.0
 40
0.0
 40
0.0
 40
0.2414753979403393
 40
0.4962275500151406
 40
0.7528781158782057
 40
1.0
 40
1.0
 40
1.0
 40
1.0
 10
69.9360324591209
 20
99.74375149029927
 30
0.0
 10
69.95206852890743
 20
99.75698801503846
 30
0.0
 10
69.98502236060175
 20
99.78418883258787
 30
0.0
 10
70.05579794091763
 20
99.79650800272347
 30
0.0
 10
70.1265131229517
 20
99.77922601783611
 30
0.0
 10
70.15903748330052
 20
99.74882286562625
 30
0.0
 10
70.17499206995865
 20
99.73390882207828
 30
0.0
  0
SPLINE
  5
283
330
1F
100
AcDbEntity
  8
VISIBLE
100
AcDbSpline
210
0.0
220
0.0
230
1.0
 70
     8
 71
     3
 72
    11
 73
     7
 74
     0
 42
0.000000001
 43
0.0000000111396681
 40
0.0
 40
0.0
 40
0.0
 40
0.0
 40
0.241475397940342
 40
0.4962275500151415
 40
0.752878115878203
 40
1.0
 40
1.0
 40
1.0
 40
1.0
 10
74.9360324591209
 20
99.74375149029926
 30
0.0
 10
74.95206852890743
 20
99.75698801503849
 30
0.0
 10
74.98502236060175
 20
99.7841888325879
 30
0.0
 10
75.05579794091763
 20
99.79650800272346
 30
0.0
 10
75.1265131229517
 20
99.77922601783608
 30
0.0
 10
75.15903748330052
 20
99.74882286562622
 30
0.0
 10
75.17499206995865
 20
99.73390882207826
 30
0.0
  0
SPLINE
  5
284
330
1F
100
AcDbEntity
  8
VISIBLE
100
AcDbSpline
210
0.0
220
0.0
230
1.0
 70
     8
 71
     3
 72
     9
 73
     5
 74
     0
 42
0.000000001
 43
0.0000000113116304
 40
0.0
 40
0.0
 40
0.0
 40
0.0
 40
0.9125324217145897
 40
1.0
 40
1.0
 40
1.0
 40
1.0
 10
78.9360324591209
 20
99.74375149029926
 30
0.0
 10
78.96012307148192
 20
99.76048184455094
 30
0.0
 10
78.9865228045629
 20
99.77881582792902
 30
0.0
 10
78.98779911302398
 20
99.77913653635846
 30
0.0
 10
78.98791074863422
 20
99.77916458794813
 30
0.0
  0
SPLINE
  5
285
330
1F
100
AcDbEntity
  8
VISIBLE
100
AcDbSpline
210
0.0
220
0.0
230
1.0
 70
     8
 71
     3
 72
    11
 73
     7
 74
     0
 42
0.000000001
 43
0.0000000113145248
 40
0.0
 40
0.0
 40
0.0
 40
0.0
 40
0.2670747381871869
 40
0.5344803712589283
 40
0.782609699050472
 40
1.0
 40
1.0
 40
1.0
 40
1.0
 10
68.65848747234472
 20
104.6441130184054
 30
0.0
 10
68.6396849484648
 20
104.6291188936539
 30
0.0
 10
68.6020566051323
 20
104.5991120670319
 30
0.0
 10
68.52827835613974
 20
104.5926326663385
 30
0.0
 10
68.46835884747655
 20
104.6119568747239
 30
0.0
 10
68.44383639441268
 20
104.6339173053411
 30
0.0
 10
68.43238479683775
 20
104.644172478971
 30
0.0
  0
SPLINE
  5
286
330
1F
100
AcDbEntity
  8
VISIBLE
100
AcDbSpline
210
0.0
220
0.0
230
1.0
 70
     8
 71
     3
 72
     9
 73
     5
 74
     0
 42
0.000000001
 43
0.0000000114136332
 40
0.0
 40
0.0
 40
0.0
 40
0.0
 40
0.505139504932267
 40
1.0
 40
1.0
 40
1.0
 40
1.0
 10
69.96679779666968
 20
105.1775890791056
 30
0.0
 10
69.913742432999
 20
105.0861181375641
 30
0.0
 10
69.80871132148894
 20
104.9050375832848
 30
0.0
 10
69.70674292432328
 20
104.7295295404562
 30
0.0
 10
69.6562827928206
 20
104.6426775434937
 30
0.0
  0
SPLINE
  5
287
330
1F
100
AcDbEntity
  8
VISIBLE
100
AcDbSpline
210
0.0
220
0.0
230
1.0
 70
     8
 71
     3
 72
     9
 73
     5
 74
     0
 42
0.000000001
 43
0.000000011615408
 40
0.0
 40
0.0
 40
0.0
 40
0.0
 40
0.505139504932264
 40
1.0
 40
1.0
 40
1.0
 40
1.0
 10
74.96679779666967
 20
105.1775890791056
 30
0.0
 10
74.913742432999
 20
105.0861181375641
 30
0.0
 10
74.80871132148894
 20
104.9050375832848
 30
0.0
 10
74.70674292432327
 20
104.7295295404562
 30
0.0
 10
74.6562827928206
 20
104.6426775434937
 30
0.0
  0
SPLINE
  5
288
330
1F
100
AcDbEntity
  8
VISIBLE
100
AcDbSpline
210
0.0
220
0.0
230
1.0
 70
     8
 71
     3
 72
    17
 73
    13
 74
     0
 42
0.000000001
 43
0.0000000109581684
 40
0.0
 40
0.0
 40
0.0
 40
0.0
 40
0.0656343990982986
 40
0.1202238844241245
 40
0.1813198720324175
 40
0.2490808212288736
 40
0.3234145443884584
 40
0.4040616138319765
 40
0.4906995976439621
 40
0.6249526049827749
 40
0.7726434075304488
 40
1.0
 40
1.0
 40
1.0
 40
1.0
 10
70.09377694680882
 20
100.0087360414561
 30
0.0
 10
70.1032536029773
 20
100.0067679227016
 30
0.0
 10
70.12061218980949
 20
100.0031628789298
 30
0.0
 10
70.13492278264972
 20
99.98985103460495
 30
0.0
 10
70.1515389264456
 20
99.9725958175729
 30
0.0
 10
70.16854242430847
 20
99.9491027854696
 30
0.0
 10
70.18677233447215
 20
99.91982210684651
 30
0.0
 10
70.20688237260632
 20
99.88226813721042
 30
0.0
 10
70.22783232648712
 20
99.84005870738318
 30
0.0
 10
70.27562359001065
 20
99.72974575165422
 30
0.0
 10
70.32362044602326
 20
99.60402710231263
 30
0.0
 10
70.39458347016688
 20
99.4178521567262
 30
0.0
 10
70.43760179685032
 20
99.30499148419764
 30
0.0
  0
SPLINE
  5
289
330
1F
100
AcDbEntity
  8
VISIBLE
100
AcDbSpline
210
0.0
220
0.0
230
1.0
 70
     8
 71
     3
 72
    13
 73
     9
 74
     0
 42
0.000000001
 43
0.0000000111592546
 40
0.0
 40
0.0
 40
0.0
 40
0.0
 40
0.1896504037110721
 40
0.3473865614677227
 40
0.5239232384880936
 40
0.7197183024713405
 40
0.9345053775453904
 40
1.0
 40
1.0
 40
1.0
 40
1.0
 10
75.09377694680882
 20
100.0087360414561
 30
0.0
 10
75.10326093216358
 20
100.0067549786735
 30
0.0
 10
75.12063294401767
 20
100.0031262250582
 30
0.0
 10
75.13485252143431
 20
99.98997512247917
 30
0.0
 10
75.15185368719104
 20
99.97203992067395
 30
0.0
 10
75.16717393169787
 20
99.95151967134099
 30
0.0
 10
75.18599374835549
 20
99.92043836359205
 30
0.0
 10
75.18755412257741
 20
99.91764549432263
 30
0.0
 10
75.18791874189237
 20
99.91699287262104
 30
0.0
  0
SPLINE
  5
28A
330
1F
100
AcDbEntity
  8
VISIBLE
100
AcDbSpline
210
0.0
220
0.0
230
1.0
 70
     8
 71
     3
 72
    17
 73
    13
 74
     0
 42
0.000000001
 43
0.000000010917999
 40
0.0
 40
0.0
 40
0.0
 40
0.0
 40
0.0656343990982938
 40
0.1202238844241399
 40
0.1813198720324164
 40
0.2490808212288878
 40
0.323414544388454
 40
0.4040616138319768
 40
0.4906995976439594
 40
0.6249526049827717
 40
0.7726434075304445
 40
1.0
 40
1.0
 40
1.0
 40
1.0
 10
69.09377694680882
 20
100.0087360414561
 30
0.0
 10
69.1032536029773
 20
100.0067679227016
 30
0.0
 10
69.1206121898095
 20
100.0031628789298
 30
0.0
 10
69.13492278264974
 20
99.98985103460498
 30
0.0
 10
69.15153892644561
 20
99.97259581757288
 30
0.0
 10
69.16854242430847
 20
99.94910278546963
 30
0.0
 10
69.18677233447214
 20
99.91982210684652
 30
0.0
 10
69.20688237260633
 20
99.88226813721042
 30
0.0
 10
69.22783232648712
 20
99.84005870738322
 30
0.0
 10
69.27562359001067
 20
99.72974575165428
 30
0.0
 10
69.32362044602324
 20
99.60402710231264
 30
0.0
 10
69.39458347016686
 20
99.41785215672621
 30
0.0
 10
69.43760179685032
 20
99.30499148419764
 30
0.0
  0
SPLINE
  5
28B
330
1F
100
AcDbEntity
  8
VISIBLE
100
AcDbSpline
210
0.0
220
0.0
230
1.0
 70
     8
 71
     3
 72
     9
 73
     5
 74
     0
 42
0.000000001
 43
0.0000000113754862
 40
0.0
 40
0.0
 40
0.0
 40
0.0
 40
0.5051395049322627
 40
1.0
 40
1.0
 40
1.0
 40
1.0
 10
68.96679779666968
 20
105.1775890791056
 30
0.0
 10
68.913742432999
 20
105.0861181375641
 30
0.0
 10
68.80871132148897
 20
104.9050375832848
 30
0.0
 10
68.7067429243233
 20
104.7295295404562
 30
0.0
 10
68.6562827928206
 20
104.6426775434937
 30
0.0
  0
SPLINE
  5
28C
330
1F
100
AcDbEntity
  8
VISIBLE
100
AcDbSpline
210
0.0
220
0.0
230
1.0
 70
     8
 71
     3
 72
     9
 73
     5
 74
     0
 42
0.000000001
 43
0.000000011392801
 40
0.0
 40
0.0
 40
0.0
 40
0.0
 40
0.4933311810424998
 40
1.0
 40
1.0
 40
1.0
 40
1.0
 10
69.4345768706417
 20
104.642477838054
 30
0.0
 10
69.38491415606309
 20
104.7279206791103
 30
0.0
 10
69.28424605218676
 20
104.9011163828072
 30
0.0
 10
69.17963335244102
 20
105.0814789551859
 30
0.0
 10
69.12662935941289
 20
105.1728630467171
 30
0.0
  0
SPLINE
  5
28D
330
1F
100
AcDbEntity
  8
VISIBLE
100
AcDbSpline
210
0.0
220
0.0
230
1.0
 70
     8
 71
     3
 72
     9
 73
     5
 74
     0
 42
0.000000001
 43
0.0000000114312994
 40
0.0
 40
0.0
 40
0.0
 40
0.0
 40
0.4933311810425133
 40
1.0
 40
1.0
 40
1.0
 40
1.0
 10
70.43457687064172
 20
104.642477838054
 30
0.0
 10
70.38491415606309
 20
104.7279206791103
 30
0.0
 10
70.28424605218675
 20
104.9011163828072
 30
0.0
 10
70.17963335244102
 20
105.0814789551859
 30
0.0
 10
70.12662935941289
 20
105.1728630467171
 30
0.0
  0
SPLINE
  5
28E
330
1F
100
AcDbEntity
  8
VISIBLE
100
AcDbSpline
210
0.0
220
0.0
230
1.0
 70
     8
 71
     3
 72
     9
 73
     5
 74
     0
 42
0.000000001
 43
0.0000000109137289
 40
0.0
 40
0.0
 40
0.0
 40
0.0
 40
0.5052517002632207
 40
1.0
 40
1.0
 40
1.0
 40
1.0
 10
69.62662935941287
 20
99.21060780251509
 30
0.0
 10
69.67955859084714
 20
99.30186333479335
 30
0.0
 10
69.78431673694877
 20
99.48247733813213
 30
0.0
 10
69.8859867146407
 20
99.65739502059833
 30
0.0
 10
69.93628776323804
 20
99.74393524659239
 30
0.0
  0
SPLINE
  5
28F
330
1F
100
AcDbEntity
  8
VISIBLE
100
AcDbSpline
210
0.0
220
0.0
230
1.0
 70
     8
 71
     3
 72
     9
 73
     5
 74
     0
 42
0.000000001
 43
0.0000000111244374
 40
0.0
 40
0.0
 40
0.0
 40
0.0
 40
0.5052517002632193
 40
1.0
 40
1.0
 40
1.0
 40
1.0
 10
74.62662935941287
 20
99.21060780251509
 30
0.0
 10
74.67955859084714
 20
99.30186333479337
 30
0.0
 10
74.78431673694877
 20
99.48247733813214
 30
0.0
 10
74.8859867146407
 20
99.65739502059834
 30
0.0
 10
74.93628776323806
 20
99.74393524659239
 30
0.0
  0
SPLINE
  5
290
330
1F
100
AcDbEntity
  8
VISIBLE
100
AcDbSpline
210
0.0
220
0.0
230
1.0
 70
     8
 71
     3
 72
     9
 73
     5
 74
     0
 42
0.000000001
 43
0.0000000108738564
 40
0.0
 40
0.0
 40
0.0
 40
0.0
 40
0.4049164449643003
 40
1.0
 40
1.0
 40
1.0
 40
1.0
 10
68.71446706415219
 20
99.36203974613461
 30
0.0
 10
68.73562503296722
 20
99.39850519478216
 30
0.0
 10
68.78787771145971
 20
99.48856191907943
 30
0.0
 10
68.88091989179553
 20
99.64866220141683
 30
0.0
 10
68.93628776323804
 20
99.74393524659239
 30
0.0
  0
SPLINE
  5
291
330
1F
100
AcDbEntity
  8
VISIBLE
100
AcDbSpline
210
0.0
220
0.0
230
1.0
 70
     8
 71
     3
 72
    21
 73
    17
 74
     0
 42
0.000000001
 43
0.0000000113153284
 40
0.0
 40
0.0
 40
0.0
 40
0.0
 40
0.0709576950102612
 40
0.162925441436448
 40
0.2357404763821797
 40
0.3129882600352235
 40
0.3912925856664412
 40
0.4717402626295679
 40
0.5839971635841206
 40
0.6612513407410472
 40
0.7359861872062352
 40
0.8047872181825751
 40
0.8681774444609807
 40
0.9228295863337684
 40
0.9682518303296161
 40
1.0
 40
1.0
 40
1.0
 40
1.0
 10
68.41311473528913
 20
104.6371602284926
 30
0.0
 10
68.42395208269491
 20
104.5318054691989
 30
0.0
 10
68.4488356363367
 20
104.2899011815402
 30
0.0
 10
68.47899569133814
 20
103.6983087016183
 30
0.0
 10
68.49604104502745
 20
103.3435640397296
 30
0.0
 10
68.51409199726828
 20
102.9214685880595
 30
0.0
 10
68.53106219697428
 20
102.4832388707268
 30
0.0
 10
68.54512059023727
 20
102.0569218651319
 30
0.0
 10
68.57856002474738
 20
101.1714545002955
 30
0.0
 10
68.59557732875697
 20
100.780349213319
 30
0.0
 10
68.61399338089396
 20
100.3758900382722
 30
0.0
 10
68.6304878127646
 20
100.0545553786132
 30
0.0
 10
68.6459771918918
 20
99.77417097514949
 30
0.0
 10
68.66128467514193
 20
99.57091242134753
 30
0.0
 10
68.67567549748657
 20
99.42388123735486
 30
0.0
 10
68.69077402354817
 20
99.37401452438627
 30
0.0
 10
68.69698560833052
 20
99.35349918970013
 30
0.0
  0
SPLINE
  5
292
330
1F
100
AcDbEntity
  8
VISIBLE
100
AcDbSpline
210
0.0
220
0.0
230
1.0
 70
    12
 71
     2
 72
     8
 73
     5
 74
     0
 42
0.000000001
 43
0.0000000129682326
 40
0.4123136099001485
 40
0.4123136099001485
 40
0.4123136099001485
 40
0.4166666666666665
 40
0.4166666666666665
 40
0.4189431824721675
 40
0.4189431824721675
 40
0.4189431824721675
 10
78.78762261856603
 20
103.9981263963854
 30
0.0
 41
0.9545560115249871
 10
78.85728390584836
 20
103.2679866094375
 30
0.0
 41
0.895024175932419
 10
78.9204641725712
 20
102.1917354246161
 30
0.0
 41
1.0
 10
78.95175480979844
 20
101.65871163196
 30
0.0
 41
0.9451008485523387
 10
78.98771757147104
 20
101.173539962233
 30
0.0
 41
0.9351940600571874
  0
SPLINE
  5
293
330
1F
100
AcDbEntity
  8
VISIBLE
100
AcDbSpline
210
0.0
220
0.0
230
1.0
 70
    12
 71
     2
 72
    12
 73
     9
 74
     0
 42
0.000000001
 43
0.0000000132491737
 40
0.2746503917463148
 40
0.2746503917463148
 40
0.2746503917463148
 40
0.277777777777778
 40
0.277777777777778
 40
0.2833333333333335
 40
0.2833333333333335
 40
0.288888888888889
 40
0.288888888888889
 40
0.2890380102509345
 40
0.2890380102509345
 40
0.2890380102509345
 10
74.65923567278263
 20
104.6448832891064
 30
0.0
 41
0.9340738128925896
 10
74.70985770687213
 20
104.6953103015829
 30
0.0
 41
0.9245817494604207
 10
74.75379750590454
 20
104.3210616380178
 30
0.0
 41
1.0
 10
74.83713083923789
 20
103.6112862335506
 30
0.0
 41
0.8660254037844389
 10
74.9204641725712
 20
102.1917354246161
 30
0.0
 41
1.0
 10
75.00379750590454
 20
100.7721846156816
 30
0.0
 41
0.8660254037844389
 10
75.08713083923784
 20
100.0624092112144
 30
0.0
 41
1.0
 10
75.08907497390652
 20
100.0458504235648
 30
0.0
 41
0.9964038746319129
 10
75.09104863507122
 20
100.0300701233063
 30
0.0
 41
0.993000802544497
  0
SPLINE
  5
294
330
1F
100
AcDbEntity
  8
VISIBLE
100
AcDbSpline
210
0.0
220
0.0
230
1.0
 70
    12
 71
     2
 72
    12
 73
     9
 74
     0
 42
0.000000001
 43
0.0000000130130741
 40
0.1079837250796481
 40
0.1079837250796481
 40
0.1079837250796481
 40
0.111111111111111
 40
0.111111111111111
 40
0.1166666666666666
 40
0.1166666666666666
 40
0.1222222222222222
 40
0.1222222222222222
 40
0.1223713435842679
 40
0.1223713435842679
 40
0.1223713435842679
 10
69.65923567278266
 20
104.6448832891064
 30
0.0
 41
0.9340738128925896
 10
69.70985770687216
 20
104.6953103015829
 30
0.0
 41
0.9245817494604207
 10
69.75379750590454
 20
104.3210616380178
 30
0.0
 41
1.0
 10
69.83713083923789
 20
103.6112862335505
 30
0.0
 41
0.8660254037844389
 10
69.9204641725712
 20
102.1917354246161
 30
0.0
 41
1.0
 10
70.00379750590454
 20
100.7721846156816
 30
0.0
 41
0.8660254037844389
 10
70.08713083923784
 20
100.0624092112144
 30
0.0
 41
1.0
 10
70.08907497390653
 20
100.0458504235648
 30
0.0
 41
0.9964038746319067
 10
70.09104863507122
 20
100.0300701233063
 30
0.0
 41
0.9930008025444852
  0
SPLINE
  5
295
330
1F
100
AcDbEntity
  8
VISIBLE
100
AcDbSpline
210
0.0
220
0.0
230
1.0
 70
    12
 71
     2
 72
    12
 73
     9
 74
     0
 42
0.000000001
 43
0.000000012968423
 40
0.0746503917463148
 40
0.0746503917463148
 40
0.0746503917463148
 40
0.0777777777777778
 40
0.0777777777777778
 40
0.0833333333333333
 40
0.0833333333333333
 40
0.0888888888888889
 40
0.0888888888888889
 40
0.0890380102509345
 40
0.0890380102509345
 40
0.0890380102509345
 10
68.65923567278266
 20
104.6448832891064
 30
0.0
 41
0.9340738128925898
 10
68.70985770687214
 20
104.6953103015829
 30
0.0
 41
0.92458174946042
 10
68.75379750590454
 20
104.3210616380178
 30
0.0
 41
1.0
 10
68.83713083923787
 20
103.6112862335505
 30
0.0
 41
0.8660254037844389
 10
68.9204641725712
 20
102.1917354246161
 30
0.0
 41
1.0
 10
69.00379750590453
 20
100.7721846156816
 30
0.0
 41
0.8660254037844389
 10
69.08713083923784
 20
100.0624092112144
 30
0.0
 41
1.0
 10
69.08907497390652
 20
100.0458504235648
 30
0.0
 41
0.9964038746319083
 10
69.09104863507122
 20
100.0300701233063
 30
0.0
 41
0.9930008025444881
  0
SPLINE
  5
296
330
1F
100
AcDbEntity
  8
VISIBLE
100
AcDbSpline
210
0.0
220
0.0
230
1.0
 70
    12
 71
     2
 72
    10
 73
     7
 74
     0
 42
0.000000001
 43
0.000000012207233
 40
0.4205261150161992
 40
0.4205261150161992
 40
0.4205261150161992
 40
0.422222222222222
 40
0.422222222222222
 40
0.4232362294955366
 40
0.4232362294955366
 40
0.4254742221071791
 40
0.4254742221071791
 40
0.4254742221071791
 10
78.78820287256707
 20
100.5492863187291
 30
0.0
 41
0.9431702173362924
 10
78.81415812220474
 20
100.2580748455009
 30
0.0
 41
0.9590976499482631
 10
78.83713083923784
 20
100.0624092112144
 30
0.0
 41
1.0
 10
78.85063336021088
 20
99.94740412379471
 30
0.0
 41
0.9755467812996489
 10
78.86534749426922
 20
99.87133974291794
 30
0.0
 41
0.960020029581816
 10
78.89956954756794
 20
99.69442961785184
 30
0.0
 41
0.925751285617356
 10
78.93568042365516
 20
99.74326980498267
 30
0.0
 41
0.9349650670770641
  0
SPLINE
  5
297
330
1F
100
AcDbEntity
  8
VISIBLE
100
AcDbSpline
210
0.0
220
0.0
230
1.0
 70
    12
 71
     2
 72
    10
 73
     7
 74
     0
 42
0.000000001
 43
0.0000000129415988
 40
0.2795669284712187
 40
0.2795669284712187
 40
0.2795669284712187
 40
0.2833333333333335
 40
0.2833333333333335
 40
0.288888888888889
 40
0.288888888888889
 40
0.2921408887738458
 40
0.2921408887738458
 40
0.2921408887738458
 10
74.55562910967282
 20
103.8014080075509
 30
0.0
 41
0.9414979094678624
 10
74.61664920766529
 20
103.1084523481952
 30
0.0
 41
0.9091715372944911
 10
74.6704641725712
 20
102.1917354246161
 30
0.0
 41
1.0
 10
74.75379750590456
 20
100.7721846156816
 30
0.0
 41
0.8660254037844389
 10
74.83713083923784
 20
100.0624092112144
 30
0.0
 41
1.0
 10
74.88297045385409
 20
99.67197923915624
 30
0.0
 41
0.9215766331335759
 10
74.93568042365516
 20
99.74326980498267
 30
0.0
 41
0.934965067077064
  0
SPLINE
  5
298
330
1F
100
AcDbEntity
  8
VISIBLE
100
AcDbSpline
210
0.0
220
0.0
230
1.0
 70
    12
 71
     2
 72
    10
 73
     7
 74
     0
 42
0.000000001
 43
0.0000000121427884
 40
0.1423595653009301
 40
0.1423595653009301
 40
0.1423595653009301
 40
0.1444444444444444
 40
0.1444444444444444
 40
0.1461497711872467
 40
0.1461497711872467
 40
0.1462988449048692
 40
0.1462988449048692
 40
0.1462988449048692
 10
70.44264448105963
 20
104.6285992335248
 30
0.0
 41
0.9371807898322462
 10
70.47528035304957
 20
104.5639509224405
 30
0.0
 41
0.9497222485460941
 10
70.50379750590454
 20
104.3210616380178
 30
0.0
 41
1.0
 10
70.52690045143389
 20
104.124286807928
 30
0.0
 41
0.9588753168791437
 10
70.55301248711336
 20
103.8309623532361
 30
0.0
 41
0.9429978016477834
 10
70.55533696467751
 20
103.8048507883501
 30
0.0
 41
0.9416098446289093
 10
70.55767434939565
 20
103.7780843574343
 30
0.0
 41
0.9404148175489844
  0
SPLINE
  5
299
330
1F
100
AcDbEntity
  8
VISIBLE
100
AcDbSpline
210
0.0
220
0.0
230
1.0
 70
    12
 71
     2
 72
    12
 73
     9
 74
     0
 42
0.000000001
 43
0.0000000130021029
 40
0.1090262319675967
 40
0.1090262319675967
 40
0.1090262319675967
 40
0.111111111111111
 40
0.111111111111111
 40
0.1166666666666666
 40
0.1166666666666666
 40
0.1222222222222222
 40
0.1222222222222222
 40
0.1254742221071791
 40
0.1254742221071791
 40
0.1254742221071791
 10
69.44264448105962
 20
104.6285992335248
 30
0.0
 41
0.9371807898322473
 10
69.47528035304957
 20
104.5639509224405
 30
0.0
 41
0.9497222485460963
 10
69.50379750590454
 20
104.3210616380178
 30
0.0
 41
1.0
 10
69.58713083923783
 20
103.6112862335505
 30
0.0
 41
0.8660254037844389
 10
69.6704641725712
 20
102.1917354246161
 30
0.0
 41
1.0
 10
69.75379750590456
 20
100.7721846156816
 30
0.0
 41
0.8660254037844389
 10
69.83713083923784
 20
100.0624092112144
 30
0.0
 41
1.0
 10
69.88297045385407
 20
99.67197923915623
 30
0.0
 41
0.9215766331335743
 10
69.93568042365516
 20
99.74326980498269
 30
0.0
 41
0.9349650670770644
  0
SPLINE
  5
29A
330
1F
100
AcDbEntity
  8
VISIBLE
100
AcDbSpline
210
0.0
220
0.0
230
1.0
 70
    12
 71
     2
 72
    12
 73
     9
 74
     0
 42
0.000000001
 43
0.0000000129576713
 40
0.0756928986342634
 40
0.0756928986342634
 40
0.0756928986342634
 40
0.0777777777777778
 40
0.0777777777777778
 40
0.0833333333333333
 40
0.0833333333333333
 40
0.0888888888888889
 40
0.0888888888888889
 40
0.0921408887738457
 40
0.0921408887738457
 40
0.0921408887738457
 10
68.44264448105963
 20
104.6285992335248
 30
0.0
 41
0.9371807898322464
 10
68.47528035304958
 20
104.5639509224405
 30
0.0
 41
0.9497222485460945
 10
68.50379750590454
 20
104.3210616380178
 30
0.0
 41
1.0
 10
68.58713083923789
 20
103.6112862335505
 30
0.0
 41
0.8660254037844389
 10
68.6704641725712
 20
102.1917354246161
 30
0.0
 41
1.0
 10
68.75379750590454
 20
100.7721846156816
 30
0.0
 41
0.8660254037844389
 10
68.83713083923784
 20
100.0624092112144
 30
0.0
 41
1.0
 10
68.88297045385407
 20
99.67197923915622
 30
0.0
 41
0.9215766331335732
 10
68.93568042365516
 20
99.74326980498269
 30
0.0
 41
0.9349650670770648
  0
SPLINE
  5
29B
330
1F
100
AcDbEntity
  8
VISIBLE
100
AcDbSpline
210
0.0
220
0.0
230
1.0
 70
    12
 71
     2
 72
    10
 73
     7
 74
     0
 42
0.000000001
 43
0.0000000124141309
 40
0.3089235966455604
 40
0.3089235966455604
 40
0.3089235966455604
 40
0.3097222222222222
 40
0.3097222222222222
 40
0.3099584124125544
 40
0.3099584124125544
 40
0.3109937941560817
 40
0.3109937941560817
 40
0.3109937941560817
 10
75.12688211158016
 20
105.1723467969864
 30
0.0
 41
0.9360374488159684
 10
75.13954202381908
 20
105.1463126008681
 30
0.0
 41
0.9401299278947045
 10
75.15183492670172
 20
105.0859392263505
 30
0.0
 41
0.9497595264191673
 10
75.15542288181321
 20
105.0683179240619
 30
0.0
 41
0.952607440103352
 10
75.15896359685713
 20
105.0478332916527
 30
0.0
 41
0.955939661265621
 10
75.1741980545877
 20
104.959695087167
 30
0.0
 41
0.9705470458989833
 10
75.18822253309992
 20
104.8209910156798
 30
0.0
 41
0.9944611895469981
  0
SPLINE
  5
29C
330
1F
100
AcDbEntity
  8
VISIBLE
100
AcDbSpline
210
0.0
220
0.0
230
1.0
 70
    12
 71
     2
 72
     8
 73
     5
 74
     0
 42
0.000000001
 43
0.0000000118568412
 40
0.2900620584391699
 40
0.2900620584391699
 40
0.2900620584391699
 40
0.2916666666666666
 40
0.2916666666666666
 40
0.2922569299788938
 40
0.2922569299788938
 40
0.2922569299788938
 10
74.55757692549373
 20
99.3321192602413
 30
0.0
 41
0.9553656851089372
 10
74.58216696384763
 20
99.1917354246161
 30
0.0
 41
0.9330127018922214
 10
74.60796417257119
 20
99.19173542461607
 30
0.0
 41
0.9330127018922195
 10
74.61745380724118
 20
99.19173542461607
 30
0.0
 41
0.9330127018922187
 10
74.62688211158019
 20
99.21112405224568
 30
0.0
 41
0.9360374488159671
  0
SPLINE
  5
29D
330
1F
100
AcDbEntity
  8
VISIBLE
100
AcDbSpline
210
0.0
220
0.0
230
1.0
 70
    12
 71
     2
 72
    14
 73
    11
 74
     0
 42
0.000000001
 43
0.0000000130635027
 40
0.1422569299788937
 40
0.1422569299788937
 40
0.1422569299788937
 40
0.1430555555555555
 40
0.1430555555555555
 40
0.1444444444444444
 40
0.1444444444444444
 40
0.15
 40
0.15
 40
0.1555555555555555
 40
0.1555555555555555
 40
0.1567287251058366
 40
0.1567287251058366
 40
0.1567287251058366
 10
70.12688211158016
 20
105.1723467969864
 30
0.0
 41
0.9360374488159673
 10
70.13954202381908
 20
105.1463126008682
 30
0.0
 41
0.9401299278947026
 10
70.15183492670174
 20
105.0859392263505
 30
0.0
 41
0.9497595264191645
 10
70.17263006942622
 20
104.9838093265344
 30
0.0
 41
0.9665063509461096
 10
70.19129750590454
 20
104.7898116359694
 30
0.0
 41
1.0
 10
70.27463083923789
 20
103.9237862321849
 30
0.0
 41
0.8660254037844389
 10
70.3579641725712
 20
102.1917354246161
 30
0.0
 41
1.0
 10
70.44129750590454
 20
100.4596846170472
 30
0.0
 41
0.8660254037844389
 10
70.52463083923784
 20
99.59365921326275
 30
0.0
 41
1.0
 10
70.54031447200163
 20
99.43067012049805
 30
0.0
 41
0.9717085149775662
 10
70.55757692549373
 20
99.33211926024127
 30
0.0
 41
0.9553656851089313
  0
SPLINE
  5
29E
330
1F
100
AcDbEntity
  8
VISIBLE
100
AcDbSpline
210
0.0
220
0.0
230
1.0
 70
    12
 71
     2
 72
    16
 73
    13
 74
     0
 42
0.000000001
 43
0.0000000130219376
 40
0.1089235966455604
 40
0.1089235966455604
 40
0.1089235966455604
 40
0.1097222222222222
 40
0.1097222222222222
 40
0.111111111111111
 40
0.111111111111111
 40
0.1166666666666666
 40
0.1166666666666666
 40
0.1222222222222222
 40
0.1222222222222222
 40
0.125
 40
0.125
 40
0.1255902633122272
 40
0.1255902633122272
 40
0.1255902633122272
 10
69.12688211158017
 20
105.1723467969864
 30
0.0
 41
0.936037448815968
 10
69.1395420238191
 20
105.1463126008681
 30
0.0
 41
0.9401299278947037
 10
69.15183492670175
 20
105.0859392263505
 30
0.0
 41
0.9497595264191663
 10
69.17263006942623
 20
104.9838093265345
 30
0.0
 41
0.9665063509461114
 10
69.19129750590454
 20
104.7898116359694
 30
0.0
 41
1.0
 10
69.27463083923787
 20
103.9237862321849
 30
0.0
 41
0.8660254037844389
 10
69.3579641725712
 20
102.1917354246161
 30
0.0
 41
1.0
 10
69.44129750590453
 20
100.4596846170472
 30
0.0
 41
0.8660254037844389
 10
69.52463083923784
 20
99.59365921326275
 30
0.0
 41
1.0
 10
69.56330597383267
 20
99.19173542461606
 30
0.0
 41
0.933012701892219
 10
69.60796417257119
 20
99.19173542461604
 30
0.0
 41
0.9330127018922194
 10
69.61745380724118
 20
99.19173542461606
 30
0.0
 41
0.9330127018922195
 10
69.62688211158016
 20
99.21112405224568
 30
0.0
 41
0.9360374488159682
  0
SPLINE
  5
29F
330
1F
100
AcDbEntity
  8
VISIBLE
100
AcDbSpline
210
0.0
220
0.0
230
1.0
 70
    12
 71
     2
 72
     6
 73
     3
 74
     0
 42
0.000000001
 43
0.0000000126396795
 40
0.4078209056107815
 40
0.4078209056107815
 40
0.4078209056107815
 40
0.4083333333333333
 40
0.4083333333333333
 40
0.4083333333333333
 10
78.96652778012346
 20
105.1771114111662
 30
0.0
 41
0.9352923231444135
 10
78.97472589690499
 20
105.191735424616
 30
0.0
 41
0.9330127018922189
 10
78.9829641725712
 20
105.191735424616
 30
0.0
 41
0.9330127018922192
  0
SPLINE
  5
2A0
330
1F
100
AcDbEntity
  8
VISIBLE
100
AcDbSpline
210
0.0
220
0.0
230
1.0
 70
    12
 71
     2
 72
    10
 73
     7
 74
     0
 42
0.000000001
 43
0.0000000127619038
 40
0.2744875722774482
 40
0.2744875722774482
 40
0.2744875722774482
 40
0.275
 40
0.275
 40
0.277777777777778
 40
0.277777777777778
 40
0.2817691371726457
 40
0.2817691371726457
 40
0.2817691371726457
 10
74.96652778012344
 20
105.1771114111663
 30
0.0
 41
0.9352923231444139
 10
74.97472589690496
 20
105.1917354246161
 30
0.0
 41
0.9330127018922193
 10
74.98296417257117
 20
105.191735424616
 30
0.0
 41
0.9330127018922192
 10
75.02762237130973
 20
105.1917354246161
 30
0.0
 41
0.9330127018922194
 10
75.06629750590454
 20
104.7898116359694
 30
0.0
 41
1.0
 10
75.12366898136216
 20
104.1935897735826
 30
0.0
 41
0.9037466626098536
 10
75.18812470436995
 20
103.0511191860324
 30
0.0
 41
0.9457987237123398
  0
SPLINE
  5
2A1
330
1F
100
AcDbEntity
  8
VISIBLE
100
AcDbSpline
210
0.0
220
0.0
230
1.0
 70
    12
 71
     2
 72
    16
 73
    13
 74
     0
 42
0.000000001
 43
0.0000000130609828
 40
0.1078209056107815
 40
0.1078209056107815
 40
0.1078209056107815
 40
0.1083333333333333
 40
0.1083333333333333
 40
0.111111111111111
 40
0.111111111111111
 40
0.1166666666666666
 40
0.1166666666666666
 40
0.1222222222222222
 40
0.1222222222222222
 40
0.1235471394092176
 40
0.1235471394092176
 40
0.125
 40
0.125
 40
0.125
 10
69.96652778012344
 20
105.1771114111663
 30
0.0
 41
0.935292323144414
 10
69.97472589690496
 20
105.1917354246161
 30
0.0
 41
0.9330127018922193
 10
69.98296417257119
 20
105.1917354246161
 30
0.0
 41
0.9330127018922194
 10
70.02762237130972
 20
105.1917354246161
 30
0.0
 41
0.9330127018922203
 10
70.06629750590454
 20
104.7898116359694
 30
0.0
 41
1.0
 10
70.14963083923784
 20
103.9237862321849
 30
0.0
 41
0.8660254037844389
 10
70.2329641725712
 20
102.1917354246161
 30
0.0
 41
1.0
 10
70.31629750590456
 20
100.4596846170472
 30
0.0
 41
0.8660254037844389
 10
70.39963083923784
 20
99.59365921326275
 30
0.0
 41
1.0
 10
70.41741008195629
 20
99.40889190301218
 30
0.0
 41
0.9680490558735824
 10
70.43714888006772
 20
99.30730988264166
 30
0.0
 41
0.95133775955214
 10
70.45960660325028
 20
99.19173542461606
 30
0.0
 41
0.9330127018922197
 10
70.4829641725712
 20
99.19173542461604
 30
0.0
 41
0.9330127018922194
  0
SPLINE
  5
2A2
330
1F
100
AcDbEntity
  8
VISIBLE
100
AcDbSpline
210
0.0
220
0.0
230
1.0
 70
    12
 71
     2
 72
    16
 73
    13
 74
     0
 42
0.000000001
 43
0.000000013016176
 40
0.0744875722774482
 40
0.0744875722774482
 40
0.0744875722774482
 40
0.075
 40
0.075
 40
0.0777777777777778
 40
0.0777777777777778
 40
0.0833333333333333
 40
0.0833333333333333
 40
0.0888888888888889
 40
0.0888888888888889
 40
0.0902138060758843
 40
0.0902138060758843
 40
0.0916666666666666
 40
0.0916666666666666
 40
0.0916666666666666
 10
68.96652778012347
 20
105.1771114111663
 30
0.0
 41
0.9352923231444141
 10
68.97472589690499
 20
105.1917354246161
 30
0.0
 41
0.9330127018922195
 10
68.98296417257122
 20
105.1917354246161
 30
0.0
 41
0.9330127018922195
 10
69.02762237130973
 20
105.1917354246161
 30
0.0
 41
0.9330127018922194
 10
69.06629750590454
 20
104.7898116359694
 30
0.0
 41
1.0
 10
69.14963083923787
 20
103.9237862321849
 30
0.0
 41
0.8660254037844389
 10
69.2329641725712
 20
102.1917354246161
 30
0.0
 41
1.0
 10
69.31629750590456
 20
100.4596846170472
 30
0.0
 41
0.8660254037844389
 10
69.39963083923784
 20
99.59365921326275
 30
0.0
 41
1.0
 10
69.41741008195629
 20
99.40889190301218
 30
0.0
 41
0.9680490558735821
 10
69.43714888006772
 20
99.30730988264163
 30
0.0
 41
0.9513377595521397
 10
69.45960660325028
 20
99.19173542461607
 30
0.0
 41
0.9330127018922193
 10
69.4829641725712
 20
99.19173542461606
 30
0.0
 41
0.9330127018922192
  0
LINE
  5
2A3
330
1F
100
AcDbEntity
  8
VISIBLE
100
AcDbLine
 10
67.8579641725712
 20
100.1917354246161
 30
0.0
 11
67.8579641725712
 21
104.1917354246161
 31
0.0
  0
LINE
  5
2A4
330
1F
100
AcDbEntity
  8
VISIBLE
100
AcDbLine
 10
97.8579641725712
 20
108.1917354246161
 30
0.0
 11
97.8579641725712
 21
96.19173542461607
 31
0.0
  0
LINE
  5
2A5
330
1F
100
AcDbEntity
  8
VISIBLE
100
AcDbLine
 10
97.55796417257119
 20
108.1917354246161
 30
0.0
 11
97.55796417257119
 21
96.19173542461607
 31
0.0
  0
LINE
  5
2A6
330
1F
100
AcDbEntity
  8
VISIBLE
100
AcDbLine
 10
78.78796417257118
 20
181.1917354246161
 30
0.0
 11
78.78796417257118
 21
151.1917354246161
 31
0.0
  0
LINE
  5
2A7
330
1F
100
AcDbEntity
  8
VISIBLE
100
AcDbLine
 10
75.18796417257118
 20
151.1917354246161
 30
0.0
 11
75.18796417257118
 21
181.1917354246161
 31
0.0
  0
LINE
  5
2A8
330
1F
100
AcDbEntity
  8
VISIBLE
100
AcDbLine
 10
75.18796417257118
 20
151.1917354246161
 30
0.0
 11
76.55796417257119
 21
151.1917354246161
 31
0.0
  0
LINE
  5
2A9
330
1F
100
AcDbEntity
  8
VISIBLE
100
AcDbLine
 10
75.18796417257118
 20
181.1917354246161
 30
0.0
 11
78.78796417257118
 21
181.1917354246161
 31
0.0
  0
LINE
  5
2AA
330
1F
100
AcDbEntity
  8
VISIBLE
100
AcDbLine
 10
75.18796417257118
 20
117.1917354246161
 30
0.0
 11
76.55796417257119
 21
117.1917354246161
 31
0.0
  0
LINE
  5
2AB
330
1F
100
AcDbEntity
  8
VISIBLE
100
AcDbLine
 10
78.78796417257118
 20
117.1917354246161
 30
0.0
 11
78.78796417257118
 21
87.19173542461607
 31
0.0
  0
LINE
  5
2AC
330
1F
100
AcDbEntity
  8
VISIBLE
100
AcDbLine
 10
75.18796417257118
 20
87.19173542461607
 30
0.0
 11
75.18796417257118
 21
117.1917354246161
 31
0.0
  0
LINE
  5
2AD
330
1F
100
AcDbEntity
  8
VISIBLE
100
AcDbLine
 10
75.18796417257118
 20
87.19173542461607
 30
0.0
 11
78.78796417257118
 21
87.19173542461607
 31
0.0
  0
LINE
  5
2AE
330
1F
100
AcDbEntity
  8
VISIBLE
100
AcDbLine
 10
74.55796417257119
 20
160.2999552315851
 30
0.0
 11
74.55796417257119
 21
169.5574938803685
 31
0.0
  0
LINE
  5
2AF
330
1F
100
AcDbEntity
  8
VISIBLE
100
AcDbLine
 10
70.55796417257119
 20
169.5574938803685
 30
0.0
 11
70.55796417257119
 21
160.2999552315851
 31
0.0
  0
LINE
  5
2B0
330
1F
100
AcDbEntity
  8
TANGENT_LINES
100
AcDbLine
 10
74.55796417257119
 20
169.5574938803685
 30
0.0
 11
70.55796417257119
 21
169.5574938803685
 31
0.0
  0
LINE
  5
2B1
330
1F
100
AcDbEntity
  8
VISIBLE
100
AcDbLine
 10
74.55796417257119
 20
159.6917354246161
 30
0.0
 11
70.55796417257119
 21
159.6917354246161
 31
0.0
  0
LINE
  5
2B2
330
1F
100
AcDbEntity
  8
VISIBLE
100
AcDbLine
 10
70.5579641725712
 20
172.6917354246161
 30
0.0
 11
74.5579641725712
 21
172.6917354246161
 31
0.0
  0
LINE
  5
2B3
330
1F
100
AcDbEntity
  8
TANGENT_LINES
100
AcDbLine
 10
70.55796417257119
 20
160.2999552315851
 30
0.0
 11
74.55796417257119
 21
160.2999552315851
 31
0.0
  0
LINE
  5
2B4
330
1F
100
AcDbEntity
  8
VISIBLE
100
AcDbLine
 10
74.55796417257119
 20
172.6917354246161
 30
0.0
 11
74.55796417257119
 21
169.5574938803685
 31
0.0
  0
LINE
  5
2B5
330
1F
100
AcDbEntity
  8
VISIBLE
100
AcDbLine
 10
70.55796417257119
 20
169.5574938803685
 30
0.0
 11
70.55796417257119
 21
172.6917354246161
 31
0.0
  0
LINE
  5
2B6
330
1F
100
AcDbEntity
  8
VISIBLE
100
AcDbLine
 10
74.55796417257119
 20
160.2999552315851
 30
0.0
 11
74.55796417257119
 21
159.6917354246161
 31
0.0
  0
LINE
  5
2B7
330
1F
100
AcDbEntity
  8
VISIBLE
100
AcDbLine
 10
70.55796417257119
 20
159.6917354246161
 30
0.0
 11
70.55796417257119
 21
160.2999552315851
 31
0.0
  0
LINE
  5
2B8
330
1F
100
AcDbEntity
  8
VISIBLE
100
AcDbLine
 10
70.55796417257118
 20
105.5574938803685
 30
0.0
 11
70.55796417257118
 21
96.29995523158512
 31
0.0
  0
LINE
  5
2B9
330
1F
100
AcDbEntity
  8
VISIBLE
100
AcDbLine
 10
74.55796417257118
 20
96.29995523158512
 30
0.0
 11
74.55796417257118
 21
105.5574938803685
 31
0.0
  0
LINE
  5
2BA
330
1F
100
AcDbEntity
  8
TANGENT_LINES
100
AcDbLine
 10
74.55796417257118
 20
105.5574938803685
 30
0.0
 11
70.55796417257118
 21
105.5574938803685
 31
0.0
  0
LINE
  5
2BB
330
1F
100
AcDbEntity
  8
VISIBLE
100
AcDbLine
 10
74.55796417257118
 20
95.69173542461607
 30
0.0
 11
70.55796417257118
 21
95.69173542461608
 31
0.0
  0
LINE
  5
2BC
330
1F
100
AcDbEntity
  8
VISIBLE
100
AcDbLine
 10
70.55796417257118
 20
108.6917354246161
 30
0.0
 11
74.55796417257119
 21
108.6917354246161
 31
0.0
  0
LINE
  5
2BD
330
1F
100
AcDbEntity
  8
TANGENT_LINES
100
AcDbLine
 10
70.55796417257118
 20
96.29995523158512
 30
0.0
 11
74.55796417257118
 21
96.29995523158512
 31
0.0
  0
LINE
  5
2BE
330
1F
100
AcDbEntity
  8
VISIBLE
100
AcDbLine
 10
70.55796417257118
 20
105.5574938803685
 30
0.0
 11
70.55796417257118
 21
108.6917354246161
 31
0.0
  0
LINE
  5
2BF
330
1F
100
AcDbEntity
  8
VISIBLE
100
AcDbLine
 10
74.55796417257118
 20
108.6917354246161
 30
0.0
 11
74.55796417257118
 21
105.5574938803685
 31
0.0
  0
LINE
  5
2C0
330
1F
100
AcDbEntity
  8
VISIBLE
100
AcDbLine
 10
70.55796417257118
 20
95.69173542461607
 30
0.0
 11
70.55796417257118
 21
96.29995523158512
 31
0.0
  0
LINE
  5
2C1
330
1F
100
AcDbEntity
  8
VISIBLE
100
AcDbLine
 10
74.55796417257118
 20
96.29995523158512
 30
0.0
 11
74.55796417257118
 21
95.69173542461607
 31
0.0
  0
LINE
  5
2C4
330
1F
100
AcDbEntity
  8
VISIBLE
100
AcDbLine
 10
89.81111649128951
 20
75.12292233763819
 30
0.0
 11
89.81111649128951
 21
45.12292233763819
 31
0.0
  0
LINE
  5
2C5
330
1F
100
AcDbEntity
  8
VISIBLE
100
AcDbLine
 10
77.81111649128951
 20
45.12292233763819
 30
0.0
 11
89.81111649128951
 21
45.12292233763819
 31
0.0
  0
CIRCLE
  5
2C6
330
1F
100
AcDbEntity
  8
VISIBLE
100
AcDbCircle
 10
83.81111649128951
 20
60.12292233763819
 30
0.0
 40
2.5
  0
LINE
  5
2C7
330
1F
100
AcDbEntity
  8
VISIBLE
100
AcDbLine
 10
77.81111649128951
 20
75.12292233763819
 30
0.0
 11
77.81111649128951
 21
45.12292233763819
 31
0.0
  0
LINE
  5
2C8
330
1F
100
AcDbEntity
  8
VISIBLE
100
AcDbLine
 10
77.81111649128951
 20
75.12292233763819
 30
0.0
 11
89.81111649128951
 21
75.12292233763819
 31
0.0
  0
ENDSEC
  0
SECTION
  2
OBJECTS
  0
DICTIONARY
  5
C
330
0
100
AcDbDictionary
  3
ACAD_GROUP
350
D
  3
ACAD_LAYOUT
350
1A
  3
ACAD_MATERIAL
350
43
  3
ACAD_MLEADERSTYLE
350
32A
  3
ACAD_MLINESTYLE
350
17
  3
ACAD_PLOTSETTINGS
350
19
  3
ACAD_SCALELIST
350
47
  3
ACAD_VISUALSTYLE
350
2A
  3
ACDBHEADERROUNDTRIPXREC
350
309
  3
ACDBVARIABLEDICTIONARY
350
6C
  3
ONSHAPE_DATA
350
2CB
  0
DICTIONARY
  5
89
330
88
100
AcDbDictionary
280
     1
  3
OS_DIM_DISPLAY_FLAG_DATA
360
8C
  0
DICTIONARY
  5
A2
330
A1
100
AcDbDictionary
280
     1
  3
OS_DIM_DISPLAY_FLAG_DATA
360
A5
  0
DICTIONARY
  5
B3
330
B2
100
AcDbDictionary
280
     1
  3
OS_DIM_DISPLAY_FLAG_DATA
360
B6
  0
DICTIONARY
  5
C4
330
C3
100
AcDbDictionary
280
     1
  3
OS_DIM_DISPLAY_FLAG_DATA
360
C7
  0
DICTIONARY
  5
D5
330
D4
100
AcDbDictionary
280
     1
  3
OS_DIM_DISPLAY_FLAG_DATA
360
D7
  0
DICTIONARY
  5
E6
330
E5
100
AcDbDictionary
280
     1
  3
OS_DIM_DISPLAY_FLAG_DATA
360
E8
  0
DICTIONARY
  5
F6
330
F5
100
AcDbDictionary
280
     1
  3
OS_DIM_DISPLAY_FLAG_DATA
360
F9
  0
DICTIONARY
  5
10A
330
109
100
AcDbDictionary
280
     1
  3
OS_DIM_DISPLAY_FLAG_DATA
360
10D
  0
DICTIONARY
  5
11B
330
11A
100
AcDbDictionary
280
     1
  3
OS_DIM_DISPLAY_FLAG_DATA
360
11E
  0
DICTIONARY
  5
12C
330
12B
100
AcDbDictionary
280
     1
  3
OS_DIM_DISPLAY_FLAG_DATA
360
12E
  0
DICTIONARY
  5
13B
330
13A
100
AcDbDictionary
280
     1
  3
OS_DIM_DISPLAY_FLAG_DATA
360
13E
  0
DICTIONARY
  5
14C
330
14B
100
AcDbDictionary
280
     1
  3
OS_DIM_DISPLAY_FLAG_DATA
360
14F
  0
DICTIONARY
  5
15D
330
15C
100
AcDbDictionary
280
     1
  3
OS_DIM_DISPLAY_FLAG_DATA
360
160
  0
DICTIONARY
  5
D
102
{ACAD_REACTORS
330
C
102
}
330
C
100
AcDbDictionary
  0
DICTIONARY
  5
1A
102
{ACAD_REACTORS
330
C
102
}
330
C
100
AcDbDictionary
  0
DICTIONARY
  5
43
102
{ACAD_REACTORS
330
C
102
}
330
C
100
AcDbDictionary
  3
BYBLOCK
350
45
  3
BYLAYER
350
44
  3
GLOBAL
350
46
  0
DICTIONARY
  5
32A
102
{ACAD_REACTORS
330
C
102
}
330
C
100
AcDbDictionary
  0
DICTIONARY
  5
17
102
{ACAD_REACTORS
330
C
102
}
330
C
100
AcDbDictionary
  3
STANDARD
350
18
  0
DICTIONARY
  5
19
102
{ACAD_REACTORS
330
C
102
}
330
C
100
AcDbDictionary
  0
DICTIONARY
  5
47
102
{ACAD_REACTORS
330
C
102
}
330
C
100
AcDbDictionary
  3
A0
350
48
  3
A1
350
49
  3
A2
350
4A
  3
A3
350
4B
  3
A4
350
4C
  3
A5
350
4D
  3
A6
350
4E
  3
A7
350
4F
  3
A8
350
50
  3
A9
350
51
  3
B0
350
52
  3
B1
350
53
  3
B2
350
54
  3
B3
350
55
  3
B4
350
56
  3
B5
350
57
  3
B6
350
58
  3
B7
350
59
  3
B8
350
5A
  3
B9
350
5B
  3
C0
350
5C
  3
C1
350
5D
  3
C2
350
5E
  3
C3
350
5F
  3
C4
350
60
  3
C5
350
61
  3
C6
350
62
  3
C7
350
63
  3
C8
350
64
  3
C9
350
65
  3
D0
350
66
  3
D1
350
67
  3
D2
350
68
  0
DICTIONARY
  5
2A
102
{ACAD_REACTORS
330
C
102
}
330
C
100
AcDbDictionary
  3
2DWIREFRAME
350
2F
  3
BASIC
350
32
  3
BRIGHTEN
350
36
  3
COLORCHANGE
350
3A
  3
CONCEPTUAL
350
34
  3
DIM
350
35
  3
EDGECOLOROFF
350
3D
  3
FACEPATTERN
350
39
  3
FLAT
350
2B
  3
FLATWITHEDGES
350
2C
  3
GOURAUD
350
2D
  3
GOURAUDWITHEDGES
350
2E
  3
HIDDEN
350
31
  3
JITTEROFF
350
3B
  3
LINEPATTERN
350
38
  3
OVERHANGOFF
350
3C
  3
REALISTIC
350
33
  3
SHADED
350
42
  3
SHADED_WITH_EDGES
350
41
  3
SHADES_OF_GRAY
350
3E
  3
SKETCHY
350
3F
  3
THICKEN
350
37
  3
WIREFRAME
350
30
  3
X-RAY
350
40
  0
DICTIONARY
  5
309
102
{ACAD_REACTORS
330
C
102
}
330
C
100
AcDbDictionary
  3
CEPSNTYPE
350
312
  3
DIMSTYLEDATA
350
328
  3
FINGERPRINTGUID
350
313
  3
HYPERLINKBASE
350
30C
  3
INSUNITS
350
311
  3
LAYOUTDICT
350
30E
  3
LWETCUNION
350
310
  3
PLOTSETDICT
350
30F
  3
PSVPSCALE
350
315
  3
PUCSBASE
350
318
  3
PUCSORGBACK
350
31E
  3
PUCSORGBOTTOM
350
31A
  3
PUCSORGFRONT
350
31D
  3
PUCSORGLEFT
350
31B
  3
PUCSORGRIGHT
350
31C
  3
PUCSORGTOP
350
319
  3
PUCSORTHOREF
350
316
  3
PUCSORTHOVIEW
350
317
  3
STYLESHEET
350
30D
  3
TSTACKALIGN
350
30A
  3
TSTACKSIZE
350
30B
  3
UCSBASE
350
321
  3
UCSORGBACK
350
327
  3
UCSORGBOTTOM
350
323
  3
UCSORGFRONT
350
326
  3
UCSORGLEFT
350
324
  3
UCSORGRIGHT
350
325
  3
UCSORGTOP
350
322
  3
UCSORTHOREF
350
31F
  3
UCSORTHOVIEW
350
320
  3
VERSIONGUID
350
314
  0
DICTIONARY
  5
6C
102
{ACAD_REACTORS
330
C
102
}
330
C
100
AcDbDictionary
  3
CANNOSCALE
350
331
  3
CTABLESTYLE
350
329
  3
DIMASSOC
350
32F
  3
HIDETEXT
350
330
  3
MSLTSCALE
350
332
  3
OLEFRAME
350
6D
  3
PSOLHEIGHT
350
32C
  3
PSOLWIDTH
350
32B
  0
DICTIONARY
  5
2CB
102
{ACAD_REACTORS
330
C
102
}
330
C
100
AcDbDictionary
280
     1
  3
DIM_UNITS
360
2CC
  3
ONSHAPE_ANG_TOL_PRECISION
360
2CF
  3
ONSHAPE_VSHARP_EXTENSION
360
2CE
  3
ONSHAPE_WELD_STANDARD
360
2CD
  0
XRECORD
  5
8C
102
{ACAD_REACTORS
330
89
102
}
330
89
100
AcDbXrecord
 90
        1
 90
        0
  0
XRECORD
  5
A5
102
{ACAD_REACTORS
330
A2
102
}
330
A2
100
AcDbXrecord
 90
        1
 90
        0
  0
XRECORD
  5
B6
102
{ACAD_REACTORS
330
B3
102
}
330
B3
100
AcDbXrecord
 90
        1
 90
        0
  0
XRECORD
  5
C7
102
{ACAD_REACTORS
330
C4
102
}
330
C4
100
AcDbXrecord
 90
        1
 90
        0
  0
XRECORD
  5
D7
102
{ACAD_REACTORS
330
D5
102
}
330
D5
100
AcDbXrecord
 90
        1
 90
        0
  0
XRECORD
  5
E8
102
{ACAD_REACTORS
330
E6
102
}
330
E6
100
AcDbXrecord
 90
        1
 90
        0
  0
XRECORD
  5
F9
102
{ACAD_REACTORS
330
F6
102
}
330
F6
100
AcDbXrecord
 90
        1
 90
        0
  0
XRECORD
  5
10D
102
{ACAD_REACTORS
330
10A
102
}
330
10A
100
AcDbXrecord
 90
        1
 90
        0
  0
XRECORD
  5
11E
102
{ACAD_REACTORS
330
11B
102
}
330
11B
100
AcDbXrecord
 90
        1
 90
        0
  0
XRECORD
  5
12E
102
{ACAD_REACTORS
330
12C
102
}
330
12C
100
AcDbXrecord
 90
        1
 90
        0
  0
XRECORD
  5
13E
102
{ACAD_REACTORS
330
13B
102
}
330
13B
100
AcDbXrecord
 90
        1
 90
        0
  0
XRECORD
  5
14F
102
{ACAD_REACTORS
330
14C
102
}
330
14C
100
AcDbXrecord
 90
        1
 90
        0
  0
XRECORD
  5
160
102
{ACAD_REACTORS
330
15D
102
}
330
15D
100
AcDbXrecord
 90
        1
 90
        0
  0
MATERIAL
  5
45
102
{ACAD_REACTORS
330
43
102
}
102
{ACAD_XDICTIONARY
360
335
102
}
330
43
100
AcDbMaterial
  1
BYBLOCK
  0
MATERIAL
  5
44
102
{ACAD_REACTORS
330
43
102
}
102
{ACAD_XDICTIONARY
360
333
102
}
330
43
100
AcDbMaterial
  1
BYLAYER
  0
MATERIAL
  5
46
102
{ACAD_REACTORS
330
43
102
}
102
{ACAD_XDICTIONARY
360
337
102
}
330
43
100
AcDbMaterial
  1
GLOBAL
  0
MLINESTYLE
  5
18
102
{ACAD_REACTORS
330
17
102
}
330
17
100
AcDbMlineStyle
  2
Standard
 70
     0
  3

 62
   256
 51
90.0
 52
90.0
 71
     2
 49
0.5
 62
   256
  6
BYLAYER
 49
-0.5
 62
   256
  6
BYLAYER
  0
ACAD_PROXY_OBJECT
  5
48
102
{ACAD_REACTORS
330
47
102
}
330
47
100
AcDbProxyObject
 90
      499
 91
      503
 93
       41
310
903313A31580
  0
ACAD_PROXY_OBJECT
  5
49
102
{ACAD_REACTORS
330
47
102
}
330
47
100
AcDbProxyObject
 90
      499
 91
      503
 93
      105
310
903313A324000000000000004000
  0
ACAD_PROXY_OBJECT
  5
4A
102
{ACAD_REACTORS
330
47
102
}
330
47
100
AcDbProxyObject
 90
      499
 91
      503
 93
      105
310
903313A344000000000000104000
  0
ACAD_PROXY_OBJECT
  5
4B
102
{ACAD_REACTORS
330
47
102
}
330
47
100
AcDbProxyObject
 90
      499
 91
      503
 93
      105
310
903313A354000000000000144000
  0
ACAD_PROXY_OBJECT
  5
4C
102
{ACAD_REACTORS
330
47
102
}
330
47
100
AcDbProxyObject
 90
      499
 91
      503
 93
      105
310
903313A384000000000000204000
  0
ACAD_PROXY_OBJECT
  5
4D
102
{ACAD_REACTORS
330
47
102
}
330
47
100
AcDbProxyObject
 90
      499
 91
      503
 93
      113
310
904313A31304000000000000244000
  0
ACAD_PROXY_OBJECT
  5
4E
102
{ACAD_REACTORS
330
47
102
}
330
47
100
AcDbProxyObject
 90
      499
 91
      503
 93
      113
310
904313A31364000000000000304000
  0
ACAD_PROXY_OBJECT
  5
4F
102
{ACAD_REACTORS
330
47
102
}
330
47
100
AcDbProxyObject
 90
      499
 91
      503
 93
      113
310
904313A32304000000000000344000
  0
ACAD_PROXY_OBJECT
  5
50
102
{ACAD_REACTORS
330
47
102
}
330
47
100
AcDbProxyObject
 90
      499
 91
      503
 93
      113
310
904313A333040000000000003E4000
  0
ACAD_PROXY_OBJECT
  5
51
102
{ACAD_REACTORS
330
47
102
}
330
47
100
AcDbProxyObject
 90
      499
 91
      503
 93
      113
310
904313A34304000000000000444000
  0
ACAD_PROXY_OBJECT
  5
52
102
{ACAD_REACTORS
330
47
102
}
330
47
100
AcDbProxyObject
 90
      499
 91
      503
 93
      113
310
904313A35304000000000000494000
  0
ACAD_PROXY_OBJECT
  5
53
102
{ACAD_REACTORS
330
47
102
}
330
47
100
AcDbProxyObject
 90
      499
 91
      503
 93
      121
310
905313A3130304000000000000594000
  0
ACAD_PROXY_OBJECT
  5
54
102
{ACAD_REACTORS
330
47
102
}
330
47
100
AcDbProxyObject
 90
      499
 91
      503
 93
      105
310
903323A310000000000000010100
  0
ACAD_PROXY_OBJECT
  5
55
102
{ACAD_REACTORS
330
47
102
}
330
47
100
AcDbProxyObject
 90
      499
 91
      503
 93
      105
310
903343A310000000000000410100
  0
ACAD_PROXY_OBJECT
  5
56
102
{ACAD_REACTORS
330
47
102
}
330
47
100
AcDbProxyObject
 90
      499
 91
      503
 93
      105
310
903383A310000000000000810100
  0
ACAD_PROXY_OBJECT
  5
57
102
{ACAD_REACTORS
330
47
102
}
330
47
100
AcDbProxyObject
 90
      499
 91
      503
 93
      113
310
90431303A310000000000000910100
  0
ACAD_PROXY_OBJECT
  5
58
102
{ACAD_REACTORS
330
47
102
}
330
47
100
AcDbProxyObject
 90
      499
 91
      503
 93
      121
310
9053130303A310000000000001650100
  0
ACAD_PROXY_OBJECT
  5
59
102
{ACAD_REACTORS
330
47
102
}
330
47
100
AcDbProxyObject
 90
      499
 91
      503
 93
      257
310
90E312F31323822203D2031272D3022000000000000200FC000000000000284000
  0
ACAD_PROXY_OBJECT
  5
5A
102
{ACAD_REACTORS
330
47
102
}
330
47
100
AcDbProxyObject
 90
      499
 91
      503
 93
      249
310
90D312F363422203D2031272D3022000000000000240FC000000000000284000
  0
ACAD_PROXY_OBJECT
  5
5B
102
{ACAD_REACTORS
330
47
102
}
330
47
100
AcDbProxyObject
 90
      499
 91
      503
 93
      249
310
90D312F333222203D2031272D3022000000000000280FC000000000000284000
  0
ACAD_PROXY_OBJECT
  5
5C
102
{ACAD_REACTORS
330
47
102
}
330
47
100
AcDbProxyObject
 90
      499
 91
      503
 93
      249
310
90D312F313622203D2031272D30220000000000002C0FC000000000000284000
  0
ACAD_PROXY_OBJECT
  5
5D
102
{ACAD_REACTORS
330
47
102
}
330
47
100
AcDbProxyObject
 90
      499
 91
      503
 93
      249
310
90D332F333222203D2031272D30220000000000002E0FC000000000000284000
  0
ACAD_PROXY_OBJECT
  5
5E
102
{ACAD_REACTORS
330
47
102
}
330
47
100
AcDbProxyObject
 90
      499
 91
      503
 93
      241
310
90C312F3822203D2031272D3022000000000000300FC000000000000284000
  0
ACAD_PROXY_OBJECT
  5
5F
102
{ACAD_REACTORS
330
47
102
}
330
47
100
AcDbProxyObject
 90
      499
 91
      503
 93
      249
310
90D332F313622203D2031272D3022000000000000320FC000000000000284000
  0
ACAD_PROXY_OBJECT
  5
60
102
{ACAD_REACTORS
330
47
102
}
330
47
100
AcDbProxyObject
 90
      499
 91
      503
 93
      241
310
90C312F3422203D2031272D3022000000000000340FC000000000000284000
  0
ACAD_PROXY_OBJECT
  5
61
102
{ACAD_REACTORS
330
47
102
}
330
47
100
AcDbProxyObject
 90
      499
 91
      503
 93
      241
310
90C332F3822203D2031272D3022000000000000360FC000000000000284000
  0
ACAD_PROXY_OBJECT
  5
62
102
{ACAD_REACTORS
330
47
102
}
330
47
100
AcDbProxyObject
 90
      499
 91
      503
 93
      241
310
90C312F3222203D2031272D3022000000000000380FC000000000000284000
  0
ACAD_PROXY_OBJECT
  5
63
102
{ACAD_REACTORS
330
47
102
}
330
47
100
AcDbProxyObject
 90
      499
 91
      503
 93
      241
310
90C332F3422203D2031272D30220000000000003A0FC000000000000284000
  0
ACAD_PROXY_OBJECT
  5
64
102
{ACAD_REACTORS
330
47
102
}
330
47
100
AcDbProxyObject
 90
      499
 91
      503
 93
      161
310
90A3122203D2031272D30224000000000000284000
  0
ACAD_PROXY_OBJECT
  5
65
102
{ACAD_REACTORS
330
47
102
}
330
47
100
AcDbProxyObject
 90
      499
 91
      503
 93
      257
310
90E312D312F3222203D2031272D30220000000000003E0FC000000000000284000
  0
ACAD_PROXY_OBJECT
  5
66
102
{ACAD_REACTORS
330
47
102
}
330
47
100
AcDbProxyObject
 90
      499
 91
      503
 93
      225
310
90A3322203D2031272D302200000000000002100000000000000284000
  0
ACAD_PROXY_OBJECT
  5
67
102
{ACAD_REACTORS
330
47
102
}
330
47
100
AcDbProxyObject
 90
      499
 91
      503
 93
      225
310
90A3622203D2031272D302200000000000006100000000000000284000
  0
ACAD_PROXY_OBJECT
  5
68
102
{ACAD_REACTORS
330
47
102
}
330
47
100
AcDbProxyObject
 90
      499
 91
      503
 93
      249
310
90D31272D3022203D2031272D30220000000000000A100000000000000284000
  0
ACAD_PROXY_OBJECT
  5
2F
102
{ACAD_REACTORS
330
2A
102
}
330
2A
100
AcDbProxyObject
 90
      499
 91
      501
 93
      436
310
42CC9915DA5C99599C985B595049028333333333333E33F0000000000000F90107901411070040501600405405064090741402480A0340
1001
ACAD
1000
AcDbSavedByObjectVersion
1070
     0
  0
ACAD_PROXY_OBJECT
  5
32
102
{ACAD_REACTORS
330
2A
102
}
330
2A
100
AcDbProxyObject
 90
      499
 91
      501
 93
      388
310
4150985CDA58D07406404333333333333E33F0000000000000F90107A41107004050150841D405064090741402480A0350
1001
ACAD
1000
AcDbSavedByObjectVersion
1070
     0
  0
ACAD_PROXY_OBJECT
  5
36
102
{ACAD_REACTORS
330
2A
102
}
330
2A
100
AcDbProxyObject
 90
      499
 91
      501
 93
      428
310
42109C9A59DA1D195B90C409028333333333333E33F0000000000000F9010790141107004050150841D405064090741402480A029950
1001
ACAD
1000
AcDbSavedByObjectVersion
1070
     0
  0
ACAD_PROXY_OBJECT
  5
3A
102
{ACAD_REACTORS
330
2A
102
}
330
2A
100
AcDbProxyObject
 90
      499
 91
      501
 93
      452
310
42D0DBDB1BDC90DA185B99D95104090240C333333333333E33F0000000000000F90108901411070040501508421405064090741402480A0350
1001
ACAD
1000
AcDbSavedByObjectVersion
1070
     0
  0
ACAD_PROXY_OBJECT
  5
34
102
{ACAD_REACTORS
330
2A
102
}
330
2A
100
AcDbProxyObject
 90
      499
 91
      501
 93
      500
310
4290DBDB98D95C1D1D585B10940D028333333333333E33F0000000000000F90107902409070040501000000000018199010841D405064090740C02480A0340
1001
ACAD
1000
AcDbSavedByObjectVersion
1070
     0
  0
ACAD_PROXY_OBJECT
  5
35
102
{ACAD_REACTORS
330
2A
102
}
330
2A
100
AcDbProxyObject
 90
      499
 91
      501
 93
      412
310
40D11A5B50B409028333333333333E33F0000000000000F9010790141107004050150841D405064090741402480A02677FFFFFD0
1001
ACAD
1000
AcDbSavedByObjectVersion
1070
     0
  0
ACAD_PROXY_OBJECT
  5
3D
102
{ACAD_REACTORS
330
2A
102
}
330
2A
100
AcDbProxyObject
 90
      499
 91
      501
 93
      452
310
43115919D950DBDB1BDC93D999916409028333333333333E33F0000000000000F9010790141107004050150841D405064090741402480A0350
1001
ACAD
1000
AcDbSavedByObjectVersion
1070
     0
  0
ACAD_PROXY_OBJECT
  5
39
102
{ACAD_REACTORS
330
2A
102
}
330
2A
100
AcDbProxyObject
 90
      499
 91
      501
 93
      444
310
42D19858D95C185D1D195C9B90F409028333333333333E33F0000000000000F9010790141107004050150841D405064090741402480A0350
1001
ACAD
1000
AcDbSavedByObjectVersion
1070
     0
  0
ACAD_PROXY_OBJECT
  5
2B
102
{ACAD_REACTORS
330
2A
102
}
330
2A
100
AcDbProxyObject
 90
      499
 91
      501
 93
      380
310
41119B185D240901404333333333333E33F0000000000000F9010740A907004050150841D405064090741402480A1B50
1001
ACAD
1000
AcDbSavedByObjectVersion
1070
     0
  0
ACAD_PROXY_OBJECT
  5
2C
102
{ACAD_REACTORS
330
2A
102
}
330
2A
100
AcDbProxyObject
 90
      499
 91
      501
 93
      468
310
43519B185D15DA5D1A115919D95CD0140901404333333333333E33F0000000000000F90107409019070040501600405405064090741402480A1B50
1001
ACAD
1000
AcDbSavedByObjectVersion
1070
     0
  0
ACAD_PROXY_OBJECT
  5
2D
102
{ACAD_REACTORS
330
2A
102
}
330
2A
100
AcDbProxyObject
 90
      499
 91
      501
 93
      404
310
41D1DBDD5C985D5910240902404333333333333E33F0000000000000F9010740A9070040501641D405064090741402480A1B50
1001
ACAD
1000
AcDbSavedByObjectVersion
1070
     0
  0
ACAD_PROXY_OBJECT
  5
2E
102
{ACAD_REACTORS
330
2A
102
}
330
2A
100
AcDbProxyObject
 90
      499
 91
      501
 93
      492
310
4411DBDD5C985D5915DA5D1A115919D95CD0340902404333333333333E33F0000000000000F90107409019070040501600405405064090741402480A1B50
1001
ACAD
1000
AcDbSavedByObjectVersion
1070
     0
  0
ACAD_PROXY_OBJECT
  5
31
102
{ACAD_REACTORS
330
2A
102
}
330
2A
100
AcDbProxyObject
 90
      499
 91
      501
 93
      476
310
41921A5919195B90640502408333333333333E33F0000000000000F901079024090700405020000000000001110200405405064090740C02480A0340
1001
ACAD
1000
AcDbSavedByObjectVersion
1070
     0
  0
ACAD_PROXY_OBJECT
  5
3B
102
{ACAD_REACTORS
330
2A
102
}
330
2A
100
AcDbProxyObject
 90
      499
 91
      501
 93
      428
310
42529A5D1D195C93D999914409028333333333333E33F0000000000000F9010790141107004050150A41D405064090741402480A0350
1001
ACAD
1000
AcDbSavedByObjectVersion
1070
     0
  0
ACAD_PROXY_OBJECT
  5
38
102
{ACAD_REACTORS
330
2A
102
}
330
2A
100
AcDbProxyObject
 90
      499
 91
      501
 93
      444
310
42D31A5B995C185D1D195C9B90E409028333333333333E33F0000000000000F9010790141107004050750841D405064090741402483A0350
1001
ACAD
1000
AcDbSavedByObjectVersion
1070
     0
  0
ACAD_PROXY_OBJECT
  5
3C
102
{ACAD_REACTORS
330
2A
102
}
330
2A
100
AcDbProxyObject
 90
      499
 91
      501
 93
      444
310
42D3DD995C9A185B99D3D999915409028333333333333E33F0000000000000F9010790141107004050150941D405064090741402480A0350
1001
ACAD
1000
AcDbSavedByObjectVersion
1070
     0
  0
ACAD_PROXY_OBJECT
  5
33
102
{ACAD_REACTORS
330
2A
102
}
330
2A
100
AcDbProxyObject
 90
      499
 91
      501
 93
      428
310
425499585B1A5CDD1A58D08409038333333333333E33F0000000000000F9010740A907004050150800405405064090740C02480A1B40
1001
ACAD
1000
AcDbSavedByObjectVersion
1070
     0
  0
ACAD_PROXY_OBJECT
  5
42
102
{ACAD_REACTORS
330
2A
102
}
330
2A
100
AcDbProxyObject
 90
      499
 91
      501
 93
      420
310
4194DA1859195911B40902404333333333333E33F0000000000000F9010740A41107004050150800405405064090840C02480A0B40
1001
ACAD
1000
AcDbSavedByObjectVersion
1070
     0
  0
ACAD_PROXY_OBJECT
  5
41
102
{ACAD_REACTORS
330
2A
102
}
330
2A
100
AcDbProxyObject
 90
      499
 91
      501
 93
      516
310
4454DA18591959081DDA5D1A08195919D95CD1A40902404333333333333E33F0000000000000F901074090142907004050250800405405064090740C02480A0B40
1001
ACAD
1000
AcDbSavedByObjectVersion
1070
     0
  0
ACAD_PROXY_OBJECT
  5
3E
102
{ACAD_REACTORS
330
2A
102
}
330
2A
100
AcDbProxyObject
 90
      499
 91
      501
 93
      532
310
4394DA1859195CC81BD98811DC985E5174090240C333333333333E33F0000000000000F901079024090741D01000000000000111010841D405064090740C02480A0340
1001
ACAD
1000
AcDbSavedByObjectVersion
1070
     0
  0
ACAD_PROXY_OBJECT
  5
3F
102
{ACAD_REACTORS
330
2A
102
}
330
2A
100
AcDbProxyObject
 90
      499
 91
      501
 93
      476
310
41D4DAD95D18DA1E51840502408333333333333E33F0000000000000F901079024090741D01000000000000111010B41D405064090741802480A0340
1001
ACAD
1000
AcDbSavedByObjectVersion
1070
     0
  0
ACAD_PROXY_OBJECT
  5
37
102
{ACAD_REACTORS
330
2A
102
}
330
2A
100
AcDbProxyObject
 90
      499
 91
      501
 93
      412
310
41D51A1A58DAD95B90D409028333333333333E33F0000000000000F9010790141107004050150C41D405064090741402480A0350
1001
ACAD
1000
AcDbSavedByObjectVersion
1070
     0
  0
ACAD_PROXY_OBJECT
  5
30
102
{ACAD_REACTORS
330
2A
102
}
330
2A
100
AcDbProxyObject
 90
      499
 91
      501
 93
      420
310
4255DA5C99599C985B595059028333333333333E33F0000000000000F90107901411070040501600405405064090740C02480A0340
1001
ACAD
1000
AcDbSavedByObjectVersion
1070
     0
  0
ACAD_PROXY_OBJECT
  5
40
102
{ACAD_REACTORS
330
2A
102
}
330
2A
100
AcDbProxyObject
 90
      499
 91
      501
 93
      404
310
41560B54985E51940902404000000000000E03F0000000000000F9010740501907004050150841D405064090740C02480A1B40
1001
ACAD
1000
AcDbSavedByObjectVersion
1070
     0
  0
XRECORD
  5
312
102
{ACAD_REACTORS
330
309
102
}
330
309
100
AcDbXrecord
 90
        0
  0
XRECORD
  5
328
102
{ACAD_REACTORS
330
309
102
}
330
309
100
AcDbXrecord
1000
DSTYLE
1002
{
1070
   179
 70
     1
1070
   143
 40
0.03937
1070
   285
 70
     8
1070
   176
 70
     7
1070
   177
 70
     7
1070
   178
 70
     7
1070
   371
 70
    13
1070
   372
 70
    13
1070
   340
340
71
1070
   140
 40
3.5
1070
   288
 70
     1
1002
}
  0
XRECORD
  5
313
102
{ACAD_REACTORS
330
309
102
}
330
309
100
AcDbXrecord
  1
{9FD53560-1BC1-C1BF-D469-6E5F18460FB2}
  0
XRECORD
  5
30C
102
{ACAD_REACTORS
330
309
102
}
330
309
100
AcDbXrecord
  1

  0
XRECORD
  5
311
102
{ACAD_REACTORS
330
309
102
}
330
309
100
AcDbXrecord
 90
        4
  0
XRECORD
  5
30E
102
{ACAD_REACTORS
330
309
102
}
330
309
100
AcDbXrecord
340
1A
  0
XRECORD
  5
310
102
{ACAD_REACTORS
330
309
102
}
330
309
100
AcDbXrecord
 90
    10269
  0
XRECORD
  5
30F
102
{ACAD_REACTORS
330
309
102
}
330
309
100
AcDbXrecord
340
19
  0
XRECORD
  5
315
102
{ACAD_REACTORS
330
309
102
}
330
309
100
AcDbXrecord
 40
0.0
  0
XRECORD
  5
318
102
{ACAD_REACTORS
330
309
102
}
330
309
100
AcDbXrecord
340
0
  0
XRECORD
  5
31E
102
{ACAD_REACTORS
330
309
102
}
330
309
100
AcDbXrecord
 10
0.0
 20
0.0
 30
0.0
  0
XRECORD
  5
31A
102
{ACAD_REACTORS
330
309
102
}
330
309
100
AcDbXrecord
 10
0.0
 20
0.0
 30
0.0
  0
XRECORD
  5
31D
102
{ACAD_REACTORS
330
309
102
}
330
309
100
AcDbXrecord
 10
0.0
 20
0.0
 30
0.0
  0
XRECORD
  5
31B
102
{ACAD_REACTORS
330
309
102
}
330
309
100
AcDbXrecord
 10
0.0
 20
0.0
 30
0.0
  0
XRECORD
  5
31C
102
{ACAD_REACTORS
330
309
102
}
330
309
100
AcDbXrecord
 10
0.0
 20
0.0
 30
0.0
  0
XRECORD
  5
319
102
{ACAD_REACTORS
330
309
102
}
330
309
100
AcDbXrecord
 10
0.0
 20
0.0
 30
0.0
  0
XRECORD
  5
316
102
{ACAD_REACTORS
330
309
102
}
330
309
100
AcDbXrecord
340
0
  0
XRECORD
  5
317
102
{ACAD_REACTORS
330
309
102
}
330
309
100
AcDbXrecord
 70
     0
  0
XRECORD
  5
30D
102
{ACAD_REACTORS
330
309
102
}
330
309
100
AcDbXrecord
  1

  0
XRECORD
  5
30A
102
{ACAD_REACTORS
330
309
102
}
330
309
100
AcDbXrecord
 90
        1
  0
XRECORD
  5
30B
102
{ACAD_REACTORS
330
309
102
}
330
309
100
AcDbXrecord
 90
       70
  0
XRECORD
  5
321
102
{ACAD_REACTORS
330
309
102
}
330
309
100
AcDbXrecord
340
0
  0
XRECORD
  5
327
102
{ACAD_REACTORS
330
309
102
}
330
309
100
AcDbXrecord
 10
0.0
 20
0.0
 30
0.0
  0
XRECORD
  5
323
102
{ACAD_REACTORS
330
309
102
}
330
309
100
AcDbXrecord
 10
0.0
 20
0.0
 30
0.0
  0
XRECORD
  5
326
102
{ACAD_REACTORS
330
309
102
}
330
309
100
AcDbXrecord
 10
0.0
 20
0.0
 30
0.0
  0
XRECORD
  5
324
102
{ACAD_REACTORS
330
309
102
}
330
309
100
AcDbXrecord
 10
0.0
 20
0.0
 30
0.0
  0
XRECORD
  5
325
102
{ACAD_REACTORS
330
309
102
}
330
309
100
AcDbXrecord
 10
0.0
 20
0.0
 30
0.0
  0
XRECORD
  5
322
102
{ACAD_REACTORS
330
309
102
}
330
309
100
AcDbXrecord
 10
0.0
 20
0.0
 30
0.0
  0
XRECORD
  5
31F
102
{ACAD_REACTORS
330
309
102
}
330
309
100
AcDbXrecord
340
0
  0
XRECORD
  5
320
102
{ACAD_REACTORS
330
309
102
}
330
309
100
AcDbXrecord
 70
     0
  0
XRECORD
  5
314
102
{ACAD_REACTORS
330
309
102
}
330
309
100
AcDbXrecord
  1
{FAEB1C32-E019-11D5-929B-00C0DF256EC4}
  0
DICTIONARYVAR
  5
331
102
{ACAD_REACTORS
330
6C
102
}
330
6C
100
DictionaryVariables
280
     0
  1
1:1
  0
DICTIONARYVAR
  5
329
102
{ACAD_REACTORS
330
6C
102
}
330
6C
100
DictionaryVariables
280
     0
  1
Onshape-Standard
  0
DICTIONARYVAR
  5
32F
102
{ACAD_REACTORS
330
6C
102
}
330
6C
100
DictionaryVariables
280
     0
  1
2
  0
DICTIONARYVAR
  5
330
102
{ACAD_REACTORS
330
6C
102
}
330
6C
100
DictionaryVariables
280
     0
  1
1
  0
DICTIONARYVAR
  5
332
102
{ACAD_REACTORS
330
6C
102
}
330
6C
100
DictionaryVariables
280
     0
  1
1
  0
DICTIONARYVAR
  5
6D
102
{ACAD_REACTORS
330
6C
102
}
330
6C
100
DictionaryVariables
280
     0
  1
0
  0
DICTIONARYVAR
  5
32C
102
{ACAD_REACTORS
330
6C
102
}
330
6C
100
DictionaryVariables
280
     0
  1
80.000000
  0
DICTIONARYVAR
  5
32B
102
{ACAD_REACTORS
330
6C
102
}
330
6C
100
DictionaryVariables
280
     0
  1
5.000000
  0
XRECORD
  5
2CC
102
{ACAD_REACTORS
330
2CB
102
}
330
2CB
100
AcDbXrecord
 70
     4
  0
XRECORD
  5
2CF
102
{ACAD_REACTORS
330
2CB
102
}
330
2CB
100
AcDbXrecord
 90
        0
  0
XRECORD
  5
2CE
102
{ACAD_REACTORS
330
2CB
102
}
330
2CB
100
AcDbXrecord
 90
        0
  0
XRECORD
  5
2CD
102
{ACAD_REACTORS
330
2CB
102
}
330
2CB
100
AcDbXrecord
 90
        1
  0
DICTIONARY
  5
335
330
45
100
AcDbDictionary
280
     1
  3
ACAD_XREC_ROUNDTRIP
360
336
  0
DICTIONARY
  5
333
330
44
100
AcDbDictionary
280
     1
  3
ACAD_XREC_ROUNDTRIP
360
334
  0
DICTIONARY
  5
337
330
46
100
AcDbDictionary
280
     1
  3
ACAD_XREC_ROUNDTRIP
360
338
  0
XRECORD
  5
336
102
{ACAD_REACTORS
330
335
102
}
330
335
100
AcDbXrecord
102
MATERIAL
148
0.0
149
0.0
149
0.0
 93
        0
 94
      127
282
     0
 72
     1
 77
     1
171
     1
175
     1
179
     1
273
     0
  0
XRECORD
  5
334
102
{ACAD_REACTORS
330
333
102
}
330
333
100
AcDbXrecord
102
MATERIAL
148
0.0
149
0.0
149
0.0
 93
        0
 94
      127
282
     0
 72
     1
 77
     1
171
     1
175
     1
179
     1
273
     0
  0
XRECORD
  5
338
102
{ACAD_REACTORS
330
337
102
}
330
337
100
AcDbXrecord
102
MATERIAL
148
0.0
149
0.0
149
0.0
 93
        0
 94
      127
282
     0
 72
     1
 77
     1
171
     1
175
     1
179
     1
273
     0
  0
ENDSEC
  0
EOF
