  0
SECTION
  2
HEADER
  9
$ACADVER
  1
AC1014
  9
$ACADMAINTVER
 70
     9
  9
$DWGCODEPAGE
  3
ANSI_1252
  9
$INSBASE
 10
0.0
 20
0.0
 30
0.0
  9
$EXTMIN
 10
1.000000000000000E+20
 20
1.000000000000000E+20
 30
1.000000000000000E+20
  9
$EXTMAX
 10
-1.000000000000000E+20
 20
-1.000000000000000E+20
 30
-1.000000000000000E+20
  9
$LIMMIN
 10
0.0
 20
0.0
  9
$LIMMAX
 10
420.0
 20
297.0
  9
$ORTHOMODE
 70
     0
  9
$REGENMODE
 70
     1
  9
$FILLMODE
 70
     1
  9
$QTEXTMODE
 70
     0
  9
$MIRRTEXT
 70
     1
  9
$DRAGMODE
 70
     2
  9
$LTSCALE
 40
12.7
  9
$OSMODE
 70
    23
  9
$ATTMODE
 70
     1
  9
$TEXTSIZE
 40
3.5
  9
$TRACEWID
 40
1.0
  9
$TEXTSTYLE
  7
ONSHAPE-STANDARD
  9
$CLAYER
  8
0
  9
$CELTYPE
  6
BYLAYER
  9
$CECOLOR
 62
   256
  9
$CELTSCALE
 40
1.0
  9
$DELOBJ
 70
     1
  9
$DISPSILH
 70
     0
  9
$DIMSCALE
 40
1.0
  9
$DIMASZ
 40
2.5
  9
$DIMEXO
 40
0.625
  9
$DIMDLI
 40
3.75
  9
$DIMRND
 40
0.0
  9
$DIMDLE
 40
0.0
  9
$DIMEXE
 40
1.25
  9
$DIMTP
 40
0.0
  9
$DIMTM
 40
0.0
  9
$DIMTXT
 40
3.5
  9
$DIMCEN
 40
2.5
  9
$DIMTSZ
 40
0.0
  9
$DIMTOL
 70
     0
  9
$DIMLIM
 70
     0
  9
$DIMTIH
 70
     0
  9
$DIMTOH
 70
     0
  9
$DIMSE1
 70
     0
  9
$DIMSE2
 70
     0
  9
$DIMTAD
 70
     1
  9
$DIMZIN
 70
     8
  9
$DIMBLK
  1

  9
$DIMASO
 70
     1
  9
$DIMSHO
 70
     1
  9
$DIMPOST
  1

  9
$DIMAPOST
  1

  9
$DIMALT
 70
     0
  9
$DIMALTD
 70
     3
  9
$DIMALTF
 40
0.03937
  9
$DIMLFAC
 40
0.5
  9
$DIMTOFL
 70
     1
  9
$DIMTVP
 40
0.0
  9
$DIMTIX
 70
     0
  9
$DIMSOXD
 70
     0
  9
$DIMSAH
 70
     0
  9
$DIMBLK1
  1

  9
$DIMBLK2
  1

  9
$DIMSTYLE
  2
ONSHAPE-ISO-25
  9
$DIMCLRD
 70
     7
  9
$DIMCLRE
 70
     7
  9
$DIMCLRT
 70
     7
  9
$DIMTFAC
 40
1.0
  9
$DIMGAP
 40
0.625
  9
$DIMJUST
 70
     0
  9
$DIMSD1
 70
     0
  9
$DIMSD2
 70
     0
  9
$DIMTOLJ
 70
     0
  9
$DIMTZIN
 70
     8
  9
$DIMALTZ
 70
     8
  9
$DIMALTTZ
 70
     0
  9
$DIMFIT
 70
     3
  9
$DIMUPT
 70
     1
  9
$DIMUNIT
 70
     2
  9
$DIMDEC
 70
     2
  9
$DIMTDEC
 70
     2
  9
$DIMALTU
 70
     2
  9
$DIMALTTD
 70
     3
  9
$DIMTXSTY
  7
ONSHAPE-STANDARD-DIMENSION
  9
$DIMAUNIT
 70
     0
  9
$LUNITS
 70
     2
  9
$LUPREC
 70
     4
  9
$SKETCHINC
 40
1.0
  9
$FILLETRAD
 40
10.0
  9
$AUNITS
 70
     0
  9
$AUPREC
 70
     0
  9
$MENU
  1
.
  9
$ELEVATION
 40
0.0
  9
$PELEVATION
 40
0.0
  9
$THICKNESS
 40
0.0
  9
$LIMCHECK
 70
     0
  9
$CHAMFERA
 40
0.0
  9
$CHAMFERB
 40
0.0
  9
$CHAMFERC
 40
0.0
  9
$CHAMFERD
 40
0.0
  9
$SKPOLY
 70
     0
  9
$TDCREATE
 40
2458798.888518507
  9
$TDUPDATE
 40
2458798.888518507
  9
$TDINDWG
 40
0.0
  9
$TDUSRTIMER
 40
0.0
  9
$USRTIMER
 70
     1
  9
$ANGBASE
 50
0.0
  9
$ANGDIR
 70
     0
  9
$PDMODE
 70
     0
  9
$PDSIZE
 40
0.0
  9
$PLINEWID
 40
0.0
  9
$COORDS
 70
     1
  9
$SPLFRAME
 70
     0
  9
$SPLINETYPE
 70
     6
  9
$SPLINESEGS
 70
     8
  9
$ATTDIA
 70
     0
  9
$ATTREQ
 70
     1
  9
$HANDLING
 70
     1
  9
$HANDSEED
  5
250
  9
$SURFTAB1
 70
     6
  9
$SURFTAB2
 70
     6
  9
$SURFTYPE
 70
     6
  9
$SURFU
 70
     6
  9
$SURFV
 70
     6
  9
$UCSNAME
  2

  9
$UCSORG
 10
0.0
 20
0.0
 30
0.0
  9
$UCSXDIR
 10
1.0
 20
0.0
 30
0.0
  9
$UCSYDIR
 10
0.0
 20
1.0
 30
0.0
  9
$PUCSNAME
  2

  9
$PUCSORG
 10
0.0
 20
0.0
 30
0.0
  9
$PUCSXDIR
 10
1.0
 20
0.0
 30
0.0
  9
$PUCSYDIR
 10
0.0
 20
1.0
 30
0.0
  9
$USERI1
 70
     0
  9
$USERI2
 70
     0
  9
$USERI3
 70
     0
  9
$USERI4
 70
     0
  9
$USERI5
 70
     0
  9
$USERR1
 40
0.0
  9
$USERR2
 40
0.0
  9
$USERR3
 40
0.0
  9
$USERR4
 40
0.0
  9
$USERR5
 40
0.0
  9
$WORLDVIEW
 70
     1
  9
$SHADEDGE
 70
     3
  9
$SHADEDIF
 70
    70
  9
$TILEMODE
 70
     1
  9
$MAXACTVP
 70
    64
  9
$PINSBASE
 10
0.0
 20
0.0
 30
0.0
  9
$PLIMCHECK
 70
     0
  9
$PEXTMIN
 10
1.000000000000000E+20
 20
1.000000000000000E+20
 30
1.000000000000000E+20
  9
$PEXTMAX
 10
-1.000000000000000E+20
 20
-1.000000000000000E+20
 30
-1.000000000000000E+20
  9
$PLIMMIN
 10
0.0
 20
0.0
  9
$PLIMMAX
 10
420.0
 20
297.0
  9
$UNITMODE
 70
     0
  9
$VISRETAIN
 70
     1
  9
$PLINEGEN
 70
     0
  9
$PSLTSCALE
 70
     1
  9
$TREEDEPTH
 70
  3020
  9
$PICKSTYLE
 70
     1
  9
$CMLSTYLE
  2
STANDARD
  9
$CMLJUST
 70
     0
  9
$CMLSCALE
 40
20.0
  9
$PROXYGRAPHICS
 70
     1
  9
$MEASUREMENT
 70
     1
  0
ENDSEC
  0
SECTION
  2
CLASSES
  0
CLASS
  1
ACDBDICTIONARYWDFLT
  2
AcDbDictionaryWithDefault
  3
ObjectDBX Classes
 90
        0
280
     0
281
     0
  0
CLASS
  1
VISUALSTYLE
  2
AcDbVisualStyle
  3
ObjectDBX Classes
 90
     4095
280
     0
281
     0
  0
CLASS
  1
MATERIAL
  2
AcDbMaterial
  3
ObjectDBX Classes
 90
     1153
280
     0
281
     0
  0
CLASS
  1
SCALE
  2
AcDbScale
  3
ObjectDBX Classes
 90
     1153
280
     0
281
     0
  0
CLASS
  1
SUN
  2
AcDbSun
  3
SCENEOE
 90
     1153
280
     0
281
     0
  0
CLASS
  1
TABLESTYLE
  2
AcDbTableStyle
  3
ObjectDBX Classes
 90
     4095
280
     0
281
     0
  0
CLASS
  1
DICTIONARYVAR
  2
AcDbDictionaryVar
  3
ObjectDBX Classes
 90
        0
280
     0
281
     0
  0
CLASS
  1
DIMASSOC
  2
AcDbDimAssoc
  3
"AcDbDimAssoc|Product Desc:     AcDim ARX App For Dimension|Company:          Autodesk, Inc.|WEB Address:      www.autodesk.com"
 90
        0
280
     0
281
     0
  0
CLASS
  1
XRECORD
  2
AcDbXrecord
  3
ObjectDBX Classes
 90
        0
280
     0
281
     0
  0
CLASS
  1
LWPOLYLINE
  2
AcDbPolyline
  3
ObjectDBX Classes
 90
        0
280
     0
281
     1
  0
CLASS
  1
HATCH
  2
AcDbHatch
  3
ObjectDBX Classes
 90
        0
280
     0
281
     1
  0
CLASS
  1
ACDBPLACEHOLDER
  2
AcDbPlaceHolder
  3
ObjectDBX Classes
 90
        0
280
     0
281
     0
  0
CLASS
  1
LAYOUT
  2
AcDbLayout
  3
ObjectDBX Classes
 90
        0
280
     0
281
     0
  0
ENDSEC
  0
SECTION
  2
TABLES
  0
TABLE
  2
VPORT
  5
8
330
0
100
AcDbSymbolTable
 70
     1
  0
VPORT
  5
29
330
8
100
AcDbSymbolTableRecord
100
AcDbViewportTableRecord
  2
*ACTIVE
 70
     0
 10
0.0
 20
0.0
 11
1.0
 21
1.0
 12
109.2277710532665
 22
144.8772514401659
 13
0.0
 23
0.0
 14
10.0
 24
10.0
 15
10.0
 25
10.0
 16
0.0
 26
0.0
 36
1.0
 17
0.0
 27
0.0
 37
0.0
 40
250.7398353748942
 41
0.6859900271538715
 42
50.0
 43
0.0
 44
0.0
 50
0.0
 51
0.0
 71
     0
 72
   100
 73
     1
 74
     3
 75
     0
 76
     0
 77
     0
 78
     0
  0
ENDTAB
  0
TABLE
  2
LTYPE
  5
5
330
0
100
AcDbSymbolTable
 70
     2
  0
LTYPE
  5
14
330
5
100
AcDbSymbolTableRecord
100
AcDbLinetypeTableRecord
  2
BYBLOCK
 70
     0
  3

 72
    65
 73
     0
 40
0.0
  0
LTYPE
  5
15
330
5
100
AcDbSymbolTableRecord
100
AcDbLinetypeTableRecord
  2
BYLAYER
 70
     0
  3

 72
    65
 73
     0
 40
0.0
  0
LTYPE
  5
16
330
5
100
AcDbSymbolTableRecord
100
AcDbLinetypeTableRecord
  2
CONTINUOUS
 70
     0
  3
Solid line
 72
    65
 73
     0
 40
0.0
  0
LTYPE
  5
1DF
330
5
100
AcDbSymbolTableRecord
100
AcDbLinetypeTableRecord
  2
CENTER
 70
     0
  3
 Center _____  _  _____  _  _____  _  _____  _ 
 72
    65
 73
     4
 40
50.8
 49
31.75
 74
     0
 49
-6.35
 74
     0
 49
6.35
 74
     0
 49
-6.35
 74
     0
  0
ENDTAB
  0
TABLE
  2
LAYER
  5
2
330
0
100
AcDbSymbolTable
 70
     7
  0
LAYER
  5
10
330
2
100
AcDbSymbolTableRecord
100
AcDbLayerTableRecord
  2
0
 70
     0
 62
     7
  6
CONTINUOUS
  0
LAYER
  5
6E
330
2
100
AcDbSymbolTableRecord
100
AcDbLayerTableRecord
  2
DEFPOINTS
 70
     0
 62
     7
  6
CONTINUOUS
  0
LAYER
  5
75
330
2
100
AcDbSymbolTableRecord
100
AcDbLayerTableRecord
  2
ANNOTATION_TEXT
 70
     0
 62
     7
  6
CONTINUOUS
  0
LAYER
  5
122
330
2
100
AcDbSymbolTableRecord
100
AcDbLayerTableRecord
  2
CENTERMARKS
 70
     0
 62
     7
  6
CONTINUOUS
  0
LAYER
  5
12C
330
2
100
AcDbSymbolTableRecord
100
AcDbLayerTableRecord
  2
TANGENT_LINES
 70
     0
 62
     7
  6
CONTINUOUS
  0
LAYER
  5
12E
330
2
100
AcDbSymbolTableRecord
100
AcDbLayerTableRecord
  2
VISIBLE
 70
     0
 62
     7
  6
CONTINUOUS
  0
LAYER
  5
1E0
330
2
100
AcDbSymbolTableRecord
100
AcDbLayerTableRecord
  2
SKETCHED_GEOMETRY
 70
     0
 62
     7
  6
CENTER
  0
ENDTAB
  0
TABLE
  2
STYLE
  5
3
330
0
100
AcDbSymbolTable
 70
    23
  0
STYLE
  5
11
330
3
100
AcDbSymbolTableRecord
100
AcDbTextStyleTableRecord
  2
STANDARD
 70
     0
 40
0.0
 41
1.0
 50
0.0
 71
     0
 42
3.5
  3
txt
  4

  0
STYLE
  5
6F
330
3
100
AcDbSymbolTableRecord
100
AcDbTextStyleTableRecord
  2
ONSHAPE-STANDARD
 70
     0
 40
0.0
 41
1.0
 50
0.0
 71
     0
 42
3.5
  3
NotoSans-Regular.ttf
  4

1001
ACAD
1000
Noto Sans
1071
        0
  0
STYLE
  5
71
330
3
100
AcDbSymbolTableRecord
100
AcDbTextStyleTableRecord
  2
ONSHAPE-STANDARD-DIMENSION
 70
     0
 40
0.0
 41
1.0
 50
0.0
 71
     0
 42
3.5
  3

  4

1001
ACAD
1000
Noto Sans
1071
        0
  0
STYLE
  5
77
330
3
100
AcDbSymbolTableRecord
100
AcDbTextStyleTableRecord
  2
ONSHAPE-STANDARD-VIEW-LABE
 70
     0
 40
3.5
 41
1.0
 50
0.0
 71
     0
 42
3.5
  3
NotoSans-Regular.ttf
  4

1001
ACAD
1000
Noto Sans
1071
        0
  0
STYLE
  5
1E8
330
3
100
AcDbSymbolTableRecord
100
AcDbTextStyleTableRecord
  2
ONSHAPE-STANDARD-BOLD
 70
     0
 40
0.0
 41
1.0
 50
0.0
 71
     0
 42
3.5
  3
NotoSans-Bold.ttf
  4

1001
ACAD
1000
Noto Sans
1071
 33554432
  0
STYLE
  5
1E9
330
3
100
AcDbSymbolTableRecord
100
AcDbTextStyleTableRecord
  2
ONSHAPE-STANDARD-FIELDS
 70
     0
 40
0.0
 41
1.0
 50
0.0
 71
     0
 42
3.5
  3

  4

1001
ACAD
1000
Noto Sans
1071
        0
  0
STYLE
  5
1EA
330
3
100
AcDbSymbolTableRecord
100
AcDbTextStyleTableRecord
  2
ONSHAPE-STANDARD-TCFIELDS
 70
     0
 40
0.0
 41
1.0
 50
0.0
 71
     0
 42
3.5
  3
NotoSansTC-Regular.otf
  4

1001
ACAD
1000
Noto Sans TC
1071
        0
  0
STYLE
  5
1EB
330
3
100
AcDbSymbolTableRecord
100
AcDbTextStyleTableRecord
  2
ONSHAPE-STANDARD-SCFIELDS
 70
     0
 40
0.0
 41
1.0
 50
0.0
 71
     0
 42
3.5
  3
NotoSansSC-Regular.otf
  4

1001
ACAD
1000
Noto Sans SC
1071
        0
  0
STYLE
  5
1EC
330
3
100
AcDbSymbolTableRecord
100
AcDbTextStyleTableRecord
  2
ONSHAPE-STANDARD-KOREANFIE
 70
     0
 40
0.0
 41
1.0
 50
0.0
 71
     0
 42
3.5
  3
NotoSansKR-Regular.otf
  4

1001
ACAD
1000
Noto Sans KR
1071
        0
  0
STYLE
  5
1EE
330
3
100
AcDbSymbolTableRecord
100
AcDbTextStyleTableRecord
  2
TTFSTYLE
 70
     0
 40
0.0
 41
1.0
 50
0.0
 71
     0
 42
3.5
  3
Verdana.ttf
  4

1001
ACAD
1000
Verdana
1071
       34
  0
STYLE
  5
1EF
330
3
100
AcDbSymbolTableRecord
100
AcDbTextStyleTableRecord
  2
ONSHAPE-STANDARD-GTOLERANC
 70
     0
 40
0.0
 41
1.0
 50
0.0
 71
     0
 42
3.5
  3

  4

1001
ACAD
1000
Noto Sans
1071
        0
  0
STYLE
  5
1F0
330
3
100
AcDbSymbolTableRecord
100
AcDbTextStyleTableRecord
  2
ONSHAPE-STANDARD-TABLE-DAT
 70
     0
 40
0.0
 41
1.0
 50
0.0
 71
     0
 42
3.5
  3
NotoSans-Regular.ttf
  4

1001
ACAD
1000
Noto Sans
1071
        0
  0
STYLE
  5
1F1
330
3
100
AcDbSymbolTableRecord
100
AcDbTextStyleTableRecord
  2
ONSHAPE-STANDARD-TABLE-TIT
 70
     0
 40
0.0
 41
1.0
 50
0.0
 71
     0
 42
3.5
  3
NotoSans-Bold.ttf
  4

1001
ACAD
1000
Noto Sans
1071
 33554432
  0
STYLE
  5
1F2
330
3
100
AcDbSymbolTableRecord
100
AcDbTextStyleTableRecord
  2
ONSHAPE-STANDARD-TABLE-HEA
 70
     0
 40
0.0
 41
1.0
 50
0.0
 71
     0
 42
3.5
  3
NotoSans-Bold.ttf
  4

1001
ACAD
1000
Noto Sans
1071
 33554432
  0
STYLE
  5
1F3
330
3
100
AcDbSymbolTableRecord
100
AcDbTextStyleTableRecord
  2
ONSHAPE-STANDARD-BOMTABLE-
 70
     0
 40
0.0
 41
1.0
 50
0.0
 71
     0
 42
3.5
  3
NotoSans-Regular.ttf
  4

1001
ACAD
1000
Noto Sans
1071
        0
  0
STYLE
  5
1F4
330
3
100
AcDbSymbolTableRecord
100
AcDbTextStyleTableRecord
  2
ONSHAPE-STANDARD-BOMTABLE0
 70
     0
 40
0.0
 41
1.0
 50
0.0
 71
     0
 42
3.5
  3
NotoSans-Bold.ttf
  4

1001
ACAD
1000
Noto Sans
1071
 33554432
  0
STYLE
  5
1F5
330
3
100
AcDbSymbolTableRecord
100
AcDbTextStyleTableRecord
  2
ONSHAPE-STANDARD-BOMTABLE1
 70
     0
 40
0.0
 41
1.0
 50
0.0
 71
     0
 42
3.5
  3
NotoSans-Bold.ttf
  4

1001
ACAD
1000
Noto Sans
1071
 33554432
  0
STYLE
  5
1F6
330
3
100
AcDbSymbolTableRecord
100
AcDbTextStyleTableRecord
  2
ONSHAPE-STANDARD-NOTESTYLE
 70
     0
 40
3.5
 41
1.0
 50
0.0
 71
     0
 42
3.5
  3
Noto Sans
  4

1001
ACAD
1000
Noto Sans
1071
        0
  0
STYLE
  5
1F8
330
3
100
AcDbSymbolTableRecord
100
AcDbTextStyleTableRecord
  2
ONSHAPE-STANDARD-HOLE-CALL
 70
     0
 40
3.5
 41
1.0
 50
0.0
 71
     0
 42
3.5
  3
Noto Sans
  4

1001
ACAD
1000
Noto Sans
1071
        0
  0
STYLE
  5
1F9
330
3
100
AcDbSymbolTableRecord
100
AcDbTextStyleTableRecord
  2
ONSHAPE-STANDARD-HOLETABLE
 70
     0
 40
0.0
 41
1.0
 50
0.0
 71
     0
 42
3.5
  3
NotoSans-Regular.ttf
  4

1001
ACAD
1000
Noto Sans
1071
        0
  0
STYLE
  5
1FA
330
3
100
AcDbSymbolTableRecord
100
AcDbTextStyleTableRecord
  2
ONSHAPE-STANDARD-HOLETABL0
 70
     0
 40
0.0
 41
1.0
 50
0.0
 71
     0
 42
3.5
  3
NotoSans-Bold.ttf
  4

1001
ACAD
1000
Noto Sans
1071
 33554432
  0
STYLE
  5
1FB
330
3
100
AcDbSymbolTableRecord
100
AcDbTextStyleTableRecord
  2
ONSHAPE-STANDARD-HOLETABL1
 70
     0
 40
0.0
 41
1.0
 50
0.0
 71
     0
 42
3.5
  3
NotoSans-Bold.ttf
  4

1001
ACAD
1000
Noto Sans
1071
 33554432
  0
STYLE
  5
1FC
330
3
100
AcDbSymbolTableRecord
100
AcDbTextStyleTableRecord
  2
ONSHAPE-STANDARD-HOLE-TAG
 70
     0
 40
3.5
 41
1.0
 50
0.0
 71
     0
 42
3.5
  3
Noto Sans
  4

1001
ACAD
1000
Noto Sans
1071
        0
  0
ENDTAB
  0
TABLE
  2
VIEW
  5
6
330
0
100
AcDbSymbolTable
 70
     0
  0
ENDTAB
  0
TABLE
  2
UCS
  5
7
330
0
100
AcDbSymbolTable
 70
     0
  0
ENDTAB
  0
TABLE
  2
APPID
  5
9
330
0
100
AcDbSymbolTable
 70
     5
  0
APPID
  5
12
330
9
100
AcDbSymbolTableRecord
100
AcDbRegAppTableRecord
  2
ACAD
 70
     0
  0
APPID
  5
92
330
9
100
AcDbSymbolTableRecord
100
AcDbRegAppTableRecord
  2
ACAD_DIMASSOC_CALC_DIMLFAC
 70
     0
  0
APPID
  5
93
330
9
100
AcDbSymbolTableRecord
100
AcDbRegAppTableRecord
  2
ACAD_DIMASSOC_DIMLFAC
 70
     0
  0
APPID
  5
94
330
9
100
AcDbSymbolTableRecord
100
AcDbRegAppTableRecord
  2
ACAD_DIMASSOC_OVERRIDDEN_D
 70
     0
  0
APPID
  5
C7
330
9
100
AcDbSymbolTableRecord
100
AcDbRegAppTableRecord
  2
ACAD_DSTYLE_DIMRADIAL_EXTE
 70
     0
  0
ENDTAB
  0
TABLE
  2
DIMSTYLE
  5
A
330
0
100
AcDbSymbolTable
 70
    18
  0
DIMSTYLE
105
27
330
A
100
AcDbSymbolTableRecord
100
AcDbDimStyleTableRecord
  2
ISO-25
 70
     0
  3

  4

  5

  6

  7

 40
1.0
 41
2.5
 42
0.625
 43
3.75
 44
1.25
 45
0.0
 46
0.0
 47
0.0
 48
0.0
140
2.5
141
2.5
142
0.0
143
0.03937007874016
144
1.0
145
0.0
146
1.0
147
0.625
 71
     0
 72
     0
 73
     0
 74
     0
 75
     0
 76
     0
 77
     1
 78
     8
170
     0
171
     3
172
     1
173
     0
174
     0
175
     0
176
     0
177
     0
178
     0
270
     2
271
     2
272
     2
273
     2
274
     3
340
11
275
     0
280
     0
281
     0
282
     0
283
     0
284
     8
285
     0
286
     0
287
     3
288
     0
  0
DIMSTYLE
105
70
330
A
100
AcDbSymbolTableRecord
100
AcDbDimStyleTableRecord
  2
ONSHAPE-ISO-25
 70
     0
  3

  4

  5

  6

  7

 40
1.0
 41
2.5
 42
0.625
 43
3.75
 44
1.25
 45
0.0
 46
0.0
 47
0.0
 48
0.0
140
3.5
141
2.5
142
0.0
143
0.03937
144
1.0
145
0.0
146
1.0
147
0.625
 71
     0
 72
     0
 73
     0
 74
     0
 75
     0
 76
     0
 77
     1
 78
     8
170
     0
171
     3
172
     1
173
     0
174
     0
175
     0
176
     7
177
     7
178
     7
179
     1
270
     2
271
     2
272
     2
273
     2
274
     3
340
71
275
     0
280
     0
281
     0
282
     0
283
     0
284
     8
285
     8
286
     0
287
     3
288
     1
  0
DIMSTYLE
105
83
102
{ACAD_REACTORS
330
7E
330
95
330
A6
330
C8
330
D9
330
EA
330
FB
102
}
330
A
100
AcDbSymbolTableRecord
100
AcDbDimStyleTableRecord
  2
ONSHAPE-ISO-25$0
 70
     0
  3

  4

  5

  6

  7

 40
1.0
 41
2.5
 42
0.625
 43
3.75
 44
1.25
 45
0.0
 46
0.0
 47
0.0
 48
0.0
140
3.5
141
2.5
142
0.0
143
0.03937
144
1.0
145
0.0
146
1.0
147
0.625
 71
     0
 72
     0
 73
     0
 74
     0
 75
     0
 76
     0
 77
     1
 78
     8
170
     0
171
     3
172
     1
173
     0
174
     0
175
     0
176
     7
177
     7
178
     7
179
     1
270
     2
271
     2
272
     2
273
     2
274
     3
340
71
275
     0
280
     0
281
     0
282
     0
283
     0
284
     8
285
     8
286
     0
287
     3
288
     1
  0
DIMSTYLE
105
BB
102
{ACAD_REACTORS
330
B7
330
113
102
}
330
A
100
AcDbSymbolTableRecord
100
AcDbDimStyleTableRecord
  2
ONSHAPE-ISO-25$3
 70
     0
  3

  4

  5

  6

  7

 40
1.0
 41
2.5
 42
0.625
 43
3.75
 44
1.25
 45
0.0
 46
0.0
 47
0.0
 48
0.0
140
3.5
141
0.0
142
0.0
143
0.03937
144
1.0
145
0.0
146
1.0
147
0.625
 71
     0
 72
     0
 73
     0
 74
     0
 75
     0
 76
     0
 77
     1
 78
     8
170
     0
171
     3
172
     1
173
     0
174
     0
175
     0
176
     7
177
     7
178
     7
179
     1
270
     2
271
     2
272
     2
273
     2
274
     3
340
71
275
     0
280
     0
281
     0
282
     0
283
     0
284
     8
285
     8
286
     0
287
     3
288
     1
  0
DIMSTYLE
105
1FF
330
A
100
AcDbSymbolTableRecord
100
AcDbDimStyleTableRecord
  2
ISO
 70
     0
  3

  4
"
  5

  6

  7

 40
1.0
 41
3.5
 42
1.0
 43
10.0
 44
1.0
 45
0.0
 46
0.0
 47
0.1
 48
0.1
140
3.5
141
0.0
142
0.0
143
0.03937
144
1.0
145
0.0
146
0.71
147
1.5
 71
     0
 72
     0
 73
     0
 74
     0
 75
     0
 76
     0
 77
     1
 78
     8
170
     0
171
     3
172
     1
173
     0
174
     0
175
     0
176
     7
177
     7
178
     7
270
     2
271
     2
272
     3
273
     2
274
     3
340
11
275
     0
280
     0
281
     0
282
     0
283
     0
284
     8
285
     8
286
     0
287
     3
288
     1
  0
DIMSTYLE
105
200
330
A
100
AcDbSymbolTableRecord
100
AcDbDimStyleTableRecord
  2
ISO$3
 70
     0
  3

  4
"
  5

  6

  7

 40
1.0
 41
3.5
 42
1.0
 43
10.0
 44
1.0
 45
0.0
 46
0.0
 47
0.1
 48
0.1
140
3.5
141
0.0
142
0.0
143
0.03937
144
1.0
145
0.0
146
0.71
147
1.5
 71
     0
 72
     0
 73
     0
 74
     1
 75
     0
 76
     0
 77
     1
 78
     8
170
     0
171
     3
172
     0
173
     0
174
     0
175
     0
176
     7
177
     7
178
     7
270
     2
271
     2
272
     3
273
     2
274
     3
340
11
275
     0
280
     0
281
     0
282
     0
283
     0
284
     8
285
     8
286
     0
288
     1
  0
DIMSTYLE
105
201
330
A
100
AcDbSymbolTableRecord
100
AcDbDimStyleTableRecord
  2
ISO$4
 70
     0
  3

  4
"
  5

  6

  7

 40
1.0
 41
3.5
 42
1.0
 43
10.0
 44
1.0
 45
0.0
 46
0.0
 47
0.1
 48
0.1
140
3.5
141
0.0
142
0.0
143
0.03937
144
1.0
145
0.0
146
0.71
147
1.5
 71
     0
 72
     0
 73
     0
 74
     0
 75
     0
 76
     0
 77
     1
 78
     8
170
     0
171
     3
172
     1
173
     0
174
     0
175
     0
176
     7
177
     7
178
     7
270
     2
271
     2
272
     3
273
     2
274
     3
340
11
275
     0
280
     0
281
     0
282
     0
283
     0
284
     8
285
     8
286
     0
287
     3
288
     1
  0
DIMSTYLE
105
202
330
A
100
AcDbSymbolTableRecord
100
AcDbDimStyleTableRecord
  2
ISO$6
 70
     0
  3

  4
"
  5

  6

  7

 40
1.0
 41
0.5
 42
1.0
 43
10.0
 44
1.0
 45
0.0
 46
0.0
 47
0.1
 48
0.1
140
3.5
141
0.0
142
0.0
143
0.03937
144
1.0
145
0.0
146
0.71
147
1.5
 71
     0
 72
     0
 73
     0
 74
     0
 75
     0
 76
     0
 77
     0
 78
     8
170
     0
171
     3
172
     1
173
     0
174
     0
175
     0
176
     7
177
     7
178
     7
270
     2
271
     2
272
     3
273
     2
274
     3
340
11
275
     0
280
     0
281
     0
282
     0
283
     0
284
     8
285
     8
286
     0
287
     3
288
     1
  0
DIMSTYLE
105
203
330
A
100
AcDbSymbolTableRecord
100
AcDbDimStyleTableRecord
  2
ISO$7
 70
     0
  3

  4
"
  5

  6

  7

 40
1.0
 41
3.5
 42
1.0
 43
10.0
 44
1.0
 45
0.0
 46
0.0
 47
0.1
 48
0.1
140
3.5
141
0.0
142
0.0
143
0.03937
144
1.0
145
0.0
146
0.71
147
1.5
 71
     0
 72
     0
 73
     0
 74
     0
 75
     0
 76
     0
 77
     1
 78
     8
170
     0
171
     3
172
     1
173
     0
174
     0
175
     0
176
     7
177
     7
178
     7
270
     2
271
     2
272
     3
273
     2
274
     3
340
11
275
     0
280
     0
281
     0
282
     0
283
     0
284
     8
285
     8
286
     0
287
     3
288
     1
  0
DIMSTYLE
105
204
330
A
100
AcDbSymbolTableRecord
100
AcDbDimStyleTableRecord
  2
ISO$SF
 70
     0
  3

  4
"
  5

  6

  7

 40
1.0
 41
3.5
 42
1.0
 43
10.0
 44
1.0
 45
0.0
 46
0.0
 47
0.1
 48
0.1
140
3.5
141
0.0
142
0.0
143
0.03937
144
1.0
145
0.0
146
0.71
147
1.5
 71
     0
 72
     0
 73
     0
 74
     0
 75
     1
 76
     1
 77
     1
 78
     8
170
     0
171
     3
172
     1
173
     0
174
     0
175
     0
176
     7
177
     7
178
     7
270
     2
271
     2
272
     3
273
     2
274
     3
340
11
275
     0
280
     0
281
     0
282
     0
283
     0
284
     8
285
     8
286
     0
287
     3
288
     1
  0
DIMSTYLE
105
205
330
A
100
AcDbSymbolTableRecord
100
AcDbDimStyleTableRecord
  2
ISO$SH
 70
     0
  3

  4
"
  5

  6

  7

 40
1.0
 41
3.5
 42
1.0
 43
10.0
 44
1.0
 45
0.0
 46
0.0
 47
0.1
 48
0.1
140
3.5
141
0.0
142
0.0
143
0.03937
144
2.0
145
0.0
146
0.71
147
1.5
 71
     0
 72
     0
 73
     0
 74
     0
 75
     1
 76
     1
 77
     1
 78
     8
170
     0
171
     3
172
     1
173
     1
174
     0
175
     0
176
     7
177
     7
178
     7
270
     2
271
     2
272
     3
273
     2
274
     3
340
11
275
     0
280
     0
281
     0
282
     0
283
     0
284
     8
285
     8
286
     0
287
     3
288
     1
  0
DIMSTYLE
105
209
330
A
100
AcDbSymbolTableRecord
100
AcDbDimStyleTableRecord
  2
ONSHAPE-ISO-25$2
 70
     0
  3

  4

  5

  6

  7

 40
1.0
 41
2.5
 42
0.625
 43
3.75
 44
1.25
 45
0.0
 46
0.0
 47
0.0
 48
0.0
140
3.5
141
2.5
142
0.0
143
0.03937
144
1.0
145
0.0
146
1.0
147
0.625
 71
     0
 72
     0
 73
     0
 74
     0
 75
     0
 76
     0
 77
     1
 78
     8
170
     0
171
     3
172
     1
173
     0
174
     0
175
     0
176
     7
177
     7
178
     7
179
     1
270
     2
271
     2
272
     2
273
     2
274
     3
340
71
275
     0
280
     0
281
     0
282
     0
283
     0
284
     8
285
     8
286
     0
287
     3
288
     1
  0
DIMSTYLE
105
20B
330
A
100
AcDbSymbolTableRecord
100
AcDbDimStyleTableRecord
  2
ONSHAPE-ISO-25$4
 70
     0
  3

  4

  5

  6

  7

 40
1.0
 41
2.5
 42
0.625
 43
3.75
 44
1.25
 45
0.0
 46
0.0
 47
0.0
 48
0.0
140
3.5
141
0.0
142
0.0
143
0.03937
144
1.0
145
0.0
146
1.0
147
0.625
 71
     0
 72
     0
 73
     0
 74
     0
 75
     0
 76
     0
 77
     1
 78
     8
170
     0
171
     3
172
     1
173
     0
174
     0
175
     0
176
     7
177
     7
178
     7
179
     1
270
     2
271
     2
272
     2
273
     2
274
     3
340
71
275
     0
280
     0
281
     0
282
     0
283
     0
284
     8
285
     8
286
     0
287
     3
288
     1
  0
DIMSTYLE
105
20C
330
A
100
AcDbSymbolTableRecord
100
AcDbDimStyleTableRecord
  2
ONSHAPE-ISO-25$6
 70
     0
  3

  4

  5

  6

  7

 40
1.0
 41
0.5
 42
0.625
 43
3.75
 44
1.25
 45
0.0
 46
0.0
 47
0.0
 48
0.0
140
3.5
141
2.5
142
0.0
143
0.03937
144
1.0
145
0.0
146
1.0
147
0.625
 71
     0
 72
     0
 73
     0
 74
     0
 75
     0
 76
     0
 77
     1
 78
     8
170
     0
171
     3
172
     1
173
     0
174
     0
175
     0
176
     7
177
     7
178
     7
179
     1
270
     2
271
     2
272
     2
273
     2
274
     3
340
71
275
     0
280
     0
281
     0
282
     0
283
     0
284
     8
285
     8
286
     0
287
     3
288
     1
  0
DIMSTYLE
105
20D
330
A
100
AcDbSymbolTableRecord
100
AcDbDimStyleTableRecord
  2
ONSHAPE-ISO-25$7
 70
     0
  3

  4

  5

  6

  7

 40
1.0
 41
2.5
 42
0.625
 43
3.75
 44
1.25
 45
0.0
 46
0.0
 47
0.0
 48
0.0
140
3.5
141
2.5
142
0.0
143
0.03937
144
1.0
145
0.0
146
1.0
147
0.625
 71
     0
 72
     0
 73
     0
 74
     0
 75
     0
 76
     0
 77
     1
 78
     8
170
     0
171
     3
172
     1
173
     0
174
     0
175
     0
176
     7
177
     7
178
     7
179
     1
270
     2
271
     2
272
     2
273
     2
274
     3
340
71
275
     0
280
     0
281
     0
282
     0
283
     0
284
     8
285
     8
286
     0
287
     3
288
     1
  0
DIMSTYLE
105
20E
330
A
100
AcDbSymbolTableRecord
100
AcDbDimStyleTableRecord
  2
ONSHAPE-STANDARD-GTOLERANC
 70
     0
  3

  4

  5

  6

  7

 40
1.0
 41
2.5
 42
0.625
 43
3.75
 44
1.25
 45
0.0
 46
0.0
 47
0.0
 48
0.0
140
3.5
141
2.5
142
0.0
143
0.03937
144
1.0
145
0.0
146
1.0
147
0.625
 71
     0
 72
     0
 73
     0
 74
     0
 75
     0
 76
     0
 77
     1
 78
     8
170
     0
171
     3
172
     1
173
     0
174
     0
175
     0
176
     7
177
     7
178
     7
179
     1
270
     2
271
     2
272
     2
273
     2
274
     3
340
1EF
275
     0
280
     0
281
     0
282
     0
283
     0
284
     8
285
     8
286
     0
287
     3
288
     1
  0
DIMSTYLE
105
210
330
A
100
AcDbSymbolTableRecord
100
AcDbDimStyleTableRecord
  2
ONSHAPE-ORDINATESTYLE
 70
     0
  3

  4

  5

  6

  7

 40
1.0
 41
2.5
 42
0.625
 43
3.75
 44
1.25
 45
0.0
 46
0.0
 47
0.0
 48
0.0
140
3.5
141
2.5
142
0.0
143
0.03937
144
1.0
145
0.0
146
1.0
147
0.625
 71
     0
 72
     0
 73
     0
 74
     0
 75
     0
 76
     0
 77
     1
 78
     8
170
     0
171
     3
172
     1
173
     0
174
     0
175
     0
176
     7
177
     7
178
     7
179
     1
270
     2
271
     2
272
     2
273
     2
274
     3
340
71
275
     0
280
     0
281
     0
282
     0
283
     0
284
     8
285
     8
286
     0
287
     3
288
     1
  0
DIMSTYLE
105
211
330
A
100
AcDbSymbolTableRecord
100
AcDbDimStyleTableRecord
  2
ONSHAPE-CHAMFERDIMSTYLE
 70
     0
  3

  4

  5

  6

  7

 40
1.0
 41
2.5
 42
0.625
 43
3.75
 44
1.25
 45
0.0
 46
0.0
 47
0.0
 48
0.0
140
3.5
141
2.5
142
0.0
143
0.03937
144
1.0
145
0.0
146
1.0
147
0.625
 71
     0
 72
     0
 73
     0
 74
     0
 75
     0
 76
     0
 77
     1
 78
     8
170
     0
171
     3
172
     1
173
     0
174
     0
175
     0
176
     7
177
     7
178
     7
179
     1
270
     2
271
     2
272
     2
273
     2
274
     3
340
71
275
     0
280
     0
281
     0
282
     0
283
     0
284
     8
285
     8
286
     0
287
     3
288
     1
  0
ENDTAB
  0
TABLE
  2
BLOCK_RECORD
  5
1
330
0
100
AcDbSymbolTable
 70
    10
  0
BLOCK_RECORD
  5
1F
330
1
100
AcDbSymbolTableRecord
100
AcDbBlockTableRecord
  2
*MODEL_SPACE
  0
BLOCK_RECORD
  5
1B
330
1
100
AcDbSymbolTableRecord
100
AcDbBlockTableRecord
  2
*PAPER_SPACE
  0
BLOCK_RECORD
  5
85
330
1
100
AcDbSymbolTableRecord
100
AcDbBlockTableRecord
  2
*D1
  0
BLOCK_RECORD
  5
9A
330
1
100
AcDbSymbolTableRecord
100
AcDbBlockTableRecord
  2
*D2
  0
BLOCK_RECORD
  5
AB
330
1
100
AcDbSymbolTableRecord
100
AcDbBlockTableRecord
  2
*D3
  0
BLOCK_RECORD
  5
BC
330
1
100
AcDbSymbolTableRecord
100
AcDbBlockTableRecord
  2
*D4
  0
BLOCK_RECORD
  5
CD
330
1
100
AcDbSymbolTableRecord
100
AcDbBlockTableRecord
  2
*D5
  0
BLOCK_RECORD
  5
DE
330
1
100
AcDbSymbolTableRecord
100
AcDbBlockTableRecord
  2
*D6
  0
BLOCK_RECORD
  5
EF
330
1
100
AcDbSymbolTableRecord
100
AcDbBlockTableRecord
  2
*D7
  0
BLOCK_RECORD
  5
100
330
1
100
AcDbSymbolTableRecord
100
AcDbBlockTableRecord
  2
*D8
  0
BLOCK_RECORD
  5
117
330
1
100
AcDbSymbolTableRecord
100
AcDbBlockTableRecord
  2
*D9
  0
ENDTAB
  0
ENDSEC
  0
SECTION
  2
BLOCKS
  0
BLOCK
  5
20
330
1F
100
AcDbEntity
  8
0
100
AcDbBlockBegin
  2
*MODEL_SPACE
 70
     0
 10
0.0
 20
0.0
 30
0.0
  3
*MODEL_SPACE
  1

  0
ENDBLK
  5
21
330
1F
100
AcDbEntity
  8
0
100
AcDbBlockEnd
  0
BLOCK
  5
1C
330
1B
100
AcDbEntity
 67
     1
  8
0
100
AcDbBlockBegin
  2
*PAPER_SPACE
 70
     0
 10
0.0
 20
0.0
 30
0.0
  3
*PAPER_SPACE
  1

  0
ENDBLK
  5
1D
330
1B
100
AcDbEntity
 67
     1
  8
0
100
AcDbBlockEnd
  0
BLOCK
  5
86
330
85
100
AcDbEntity
  8
0
100
AcDbBlockBegin
  2
*D1
 70
     1
 10
0.0
 20
0.0
 30
0.0
  3
*D1
  1
*D1
  0
LINE
  5
88
330
85
100
AcDbEntity
  8
ANNOTATION_TEXT
 62
     7
100
AcDbLine
 10
68.11455712740732
 20
164.8044489395522
 30
0.0
 11
86.47929979877306
 21
164.8044489395522
 31
0.0
  0
LINE
  5
89
330
85
100
AcDbEntity
  8
ANNOTATION_TEXT
 62
     7
100
AcDbLine
 10
73.11455712740732
 20
114.8044489395522
 30
0.0
 11
86.47929979877306
 21
114.8044489395522
 31
0.0
  0
LINE
  5
8A
330
85
100
AcDbEntity
  8
ANNOTATION_TEXT
 62
     7
100
AcDbLine
 10
85.22929979877306
 20
162.3044489395522
 30
0.0
 11
85.22929979877306
 21
117.3044489395522
 31
0.0
  0
SOLID
  5
8B
330
85
100
AcDbEntity
  8
ANNOTATION_TEXT
 62
     7
100
AcDbTrace
 10
85.64596646543973
 20
162.3044489395522
 30
0.0
 11
84.81263313210638
 21
162.3044489395522
 31
0.0
 12
85.22929979877306
 22
164.8044489395522
 32
0.0
 13
85.22929979877306
 23
164.8044489395522
 33
0.0
  0
SOLID
  5
8C
330
85
100
AcDbEntity
  8
ANNOTATION_TEXT
 62
     7
100
AcDbTrace
 10
84.81263313210638
 20
117.3044489395522
 30
0.0
 11
85.64596646543973
 21
117.3044489395522
 31
0.0
 12
85.22929979877306
 22
114.8044489395522
 32
0.0
 13
85.22929979877306
 23
114.8044489395522
 33
0.0
  0
MTEXT
  5
8D
330
85
100
AcDbEntity
  8
ANNOTATION_TEXT
 62
     7
100
AcDbMText
 10
82.81019216934526
 20
138.6200848704726
 30
0.0
 40
3.5
 41
0.0
 71
     5
 72
     1
  1
50
  7
ONSHAPE-STANDARD-DIMENSION
 11
0.0
 21
1.0
 31
0.0
  0
POINT
  5
8E
330
85
100
AcDbEntity
  8
DEFPOINTS
 62
     0
100
AcDbPoint
 10
67.48955712740732
 20
164.8044489395522
 30
0.0
  0
POINT
  5
8F
330
85
100
AcDbEntity
  8
DEFPOINTS
 62
     0
100
AcDbPoint
 10
72.48955712740732
 20
114.8044489395522
 30
0.0
  0
POINT
  5
90
330
85
100
AcDbEntity
  8
DEFPOINTS
 62
     0
100
AcDbPoint
 10
85.22929979877306
 20
114.8044489395522
 30
0.0
  0
ENDBLK
  5
91
330
85
100
AcDbEntity
  8
0
100
AcDbBlockEnd
  0
BLOCK
  5
9B
330
9A
100
AcDbEntity
  8
0
100
AcDbBlockBegin
  2
*D2
 70
     1
 10
0.0
 20
0.0
 30
0.0
  3
*D2
  1
*D2
  0
LINE
  5
9C
330
9A
100
AcDbEntity
  8
ANNOTATION_TEXT
 62
     7
100
AcDbLine
 10
47.88955712740733
 20
114.1794489395522
 30
0.0
 11
47.88955712740733
 21
88.12610543371841
 31
0.0
  0
LINE
  5
9D
330
9A
100
AcDbEntity
  8
ANNOTATION_TEXT
 62
     7
100
AcDbLine
 10
72.48955712740732
 20
114.1794489395522
 30
0.0
 11
72.48955712740732
 21
88.12610543371841
 31
0.0
  0
LINE
  5
9E
330
9A
100
AcDbEntity
  8
ANNOTATION_TEXT
 62
     7
100
AcDbLine
 10
50.38955712740733
 20
89.37610543371841
 30
0.0
 11
69.98955712740732
 21
89.37610543371841
 31
0.0
  0
SOLID
  5
9F
330
9A
100
AcDbEntity
  8
ANNOTATION_TEXT
 62
     7
100
AcDbTrace
 10
50.38955712740733
 20
89.79277210038508
 30
0.0
 11
50.38955712740733
 21
88.95943876705174
 31
0.0
 12
47.88955712740733
 22
89.37610543371841
 32
0.0
 13
47.88955712740733
 23
89.37610543371841
 33
0.0
  0
SOLID
  5
A0
330
9A
100
AcDbEntity
  8
ANNOTATION_TEXT
 62
     7
100
AcDbTrace
 10
69.98955712740732
 20
88.95943876705174
 30
0.0
 11
69.98955712740732
 21
89.79277210038508
 31
0.0
 12
72.48955712740732
 22
89.37610543371841
 32
0.0
 13
72.48955712740732
 23
89.37610543371841
 33
0.0
  0
MTEXT
  5
A1
330
9A
100
AcDbEntity
  8
ANNOTATION_TEXT
 62
     7
100
AcDbMText
 10
60.18955712740733
 20
92.08370080156583
 30
0.0
 40
3.5
 41
0.0
 71
     5
 72
     1
  1
24,6
  7
ONSHAPE-STANDARD-DIMENSION
  0
POINT
  5
A2
330
9A
100
AcDbEntity
  8
DEFPOINTS
 62
     0
100
AcDbPoint
 10
47.88955712740733
 20
114.8044489395522
 30
0.0
  0
POINT
  5
A3
330
9A
100
AcDbEntity
  8
DEFPOINTS
 62
     0
100
AcDbPoint
 10
72.48955712740732
 20
114.8044489395522
 30
0.0
  0
POINT
  5
A4
330
9A
100
AcDbEntity
  8
DEFPOINTS
 62
     0
100
AcDbPoint
 10
72.48955712740732
 20
89.37610543371841
 30
0.0
  0
ENDBLK
  5
A5
330
9A
100
AcDbEntity
  8
0
100
AcDbBlockEnd
  0
BLOCK
  5
AC
330
AB
100
AcDbEntity
  8
0
100
AcDbBlockBegin
  2
*D3
 70
     1
 10
0.0
 20
0.0
 30
0.0
  3
*D3
  1
*D3
  0
LINE
  5
AD
330
AB
100
AcDbEntity
  8
ANNOTATION_TEXT
 62
     7
100
AcDbLine
 10
131.6734298150789
 20
223.6574386867761
 30
0.0
 11
131.6734298150789
 21
189.7826955142555
 31
0.0
  0
LINE
  5
AE
330
AB
100
AcDbEntity
  8
ANNOTATION_TEXT
 62
     7
100
AcDbLine
 10
181.6734298150789
 20
218.6574386867761
 30
0.0
 11
181.6734298150789
 21
189.7826955142555
 31
0.0
  0
LINE
  5
AF
330
AB
100
AcDbEntity
  8
ANNOTATION_TEXT
 62
     7
100
AcDbLine
 10
134.1734298150789
 20
191.0326955142555
 30
0.0
 11
179.1734298150789
 21
191.0326955142555
 31
0.0
  0
SOLID
  5
B0
330
AB
100
AcDbEntity
  8
ANNOTATION_TEXT
 62
     7
100
AcDbTrace
 10
134.1734298150789
 20
191.4493621809221
 30
0.0
 11
134.1734298150789
 21
190.6160288475888
 31
0.0
 12
131.6734298150789
 22
191.0326955142555
 32
0.0
 13
131.6734298150789
 23
191.0326955142555
 33
0.0
  0
SOLID
  5
B1
330
AB
100
AcDbEntity
  8
ANNOTATION_TEXT
 62
     7
100
AcDbTrace
 10
179.1734298150789
 20
190.6160288475888
 30
0.0
 11
179.1734298150789
 21
191.4493621809221
 31
0.0
 12
181.6734298150789
 22
191.0326955142555
 32
0.0
 13
181.6734298150789
 23
191.0326955142555
 33
0.0
  0
MTEXT
  5
B2
330
AB
100
AcDbEntity
  8
ANNOTATION_TEXT
 62
     7
100
AcDbMText
 10
156.6734298150789
 20
193.4518031436833
 30
0.0
 40
3.5
 41
0.0
 71
     5
 72
     1
  1
50
  7
ONSHAPE-STANDARD-DIMENSION
  0
POINT
  5
B3
330
AB
100
AcDbEntity
  8
DEFPOINTS
 62
     0
100
AcDbPoint
 10
131.6734298150789
 20
224.2824386867761
 30
0.0
  0
POINT
  5
B4
330
AB
100
AcDbEntity
  8
DEFPOINTS
 62
     0
100
AcDbPoint
 10
181.6734298150789
 20
219.2824386867761
 30
0.0
  0
POINT
  5
B5
330
AB
100
AcDbEntity
  8
DEFPOINTS
 62
     0
100
AcDbPoint
 10
181.6734298150789
 20
191.0326955142555
 30
0.0
  0
ENDBLK
  5
B6
330
AB
100
AcDbEntity
  8
0
100
AcDbBlockEnd
  0
BLOCK
  5
BD
330
BC
100
AcDbEntity
  8
0
100
AcDbBlockBegin
  2
*D4
 70
     1
 10
0.0
 20
0.0
 30
0.0
  3
*D4
  1
*D4
  0
LINE
  5
BE
330
BC
100
AcDbEntity
  8
ANNOTATION_TEXT
 62
     7
100
AcDbLine
 10
151.4819163771314
 20
248.8572783081126
 30
0.0
 11
133.3705002709731
 21
261.7647542703763
 31
0.0
  0
LINE
  5
BF
330
BC
100
AcDbEntity
  8
ANNOTATION_TEXT
 62
     7
100
AcDbLine
 10
161.8649432530263
 20
241.4575990654397
 30
0.0
 11
163.9008308757508
 21
240.0066815668764
 31
0.0
  0
MTEXT
  5
C0
330
BC
100
AcDbEntity
  8
ANNOTATION_TEXT
 62
     7
100
AcDbMText
 10
140.9772140549089
 20
260.1442591217447
 30
0.0
 40
3.5
 41
0.0
 71
     5
 72
     1
  1
%%c7,75
  7
ONSHAPE-STANDARD-DIMENSION
 11
0.8143550490897948
 21
-0.5803669994253272
 31
0.0
  0
LINE
  5
C1
330
BC
100
AcDbEntity
  8
ANNOTATION_TEXT
 62
     7
100
AcDbLine
 10
159.8290556303018
 20
242.908516564003
 30
0.0
 11
153.5178039998559
 21
247.4063608095493
 31
0.0
  0
SOLID
  5
C2
330
BC
100
AcDbEntity
  8
ANNOTATION_TEXT
 62
     7
100
AcDbTrace
 10
162.1067628361202
 20
241.7969136692271
 30
0.0
 11
161.6231236699324
 21
241.1182844616523
 31
0.0
 12
159.8290556303018
 22
242.908516564003
 32
0.0
 13
159.8290556303018
 23
242.908516564003
 33
0.0
  0
SOLID
  5
C3
330
BC
100
AcDbEntity
  8
ANNOTATION_TEXT
 62
     7
100
AcDbTrace
 10
151.2400967940375
 20
248.5179637043252
 30
0.0
 11
151.7237359602253
 21
249.1965929119
 31
0.0
 12
153.5178039998559
 22
247.4063608095493
 32
0.0
 13
153.5178039998559
 23
247.4063608095493
 33
0.0
  0
POINT
  5
C4
330
BC
100
AcDbEntity
  8
DEFPOINTS
 62
     0
100
AcDbPoint
 10
153.5178039998559
 20
247.4063608095493
 30
0.0
  0
POINT
  5
C5
330
BC
100
AcDbEntity
  8
DEFPOINTS
 62
     0
100
AcDbPoint
 10
159.8290556303018
 20
242.908516564003
 30
0.0
  0
ENDBLK
  5
C6
330
BC
100
AcDbEntity
  8
0
100
AcDbBlockEnd
  0
BLOCK
  5
CE
330
CD
100
AcDbEntity
  8
0
100
AcDbBlockBegin
  2
*D5
 70
     1
 10
0.0
 20
0.0
 30
0.0
  3
*D5
  1
*D5
  0
LINE
  5
CF
330
CD
100
AcDbEntity
  8
ANNOTATION_TEXT
 62
     7
100
AcDbLine
 10
157.2984298150789
 20
223.1574386867761
 30
0.0
 11
193.543960502963
 21
223.1574386867761
 31
0.0
  0
LINE
  5
D0
330
CD
100
AcDbEntity
  8
ANNOTATION_TEXT
 62
     7
100
AcDbLine
 10
157.2984298150789
 20
245.1574386867761
 30
0.0
 11
193.543960502963
 21
245.1574386867761
 31
0.0
  0
LINE
  5
D1
330
CD
100
AcDbEntity
  8
ANNOTATION_TEXT
 62
     7
100
AcDbLine
 10
192.293960502963
 20
225.6574386867761
 30
0.0
 11
192.293960502963
 21
242.6574386867761
 31
0.0
  0
SOLID
  5
D2
330
CD
100
AcDbEntity
  8
ANNOTATION_TEXT
 62
     7
100
AcDbTrace
 10
191.8772938362964
 20
225.6574386867761
 30
0.0
 11
192.7106271696297
 21
225.6574386867761
 31
0.0
 12
192.293960502963
 22
223.1574386867761
 32
0.0
 13
192.293960502963
 23
223.1574386867761
 33
0.0
  0
SOLID
  5
D3
330
CD
100
AcDbEntity
  8
ANNOTATION_TEXT
 62
     7
100
AcDbTrace
 10
192.7106271696297
 20
242.6574386867761
 30
0.0
 11
191.8772938362964
 21
242.6574386867761
 31
0.0
 12
192.293960502963
 22
245.1574386867761
 32
0.0
 13
192.293960502963
 23
245.1574386867761
 33
0.0
  0
MTEXT
  5
D4
330
CD
100
AcDbEntity
  8
ANNOTATION_TEXT
 62
     7
100
AcDbMText
 10
189.9010790315734
 20
235.7429958080578
 30
0.0
 40
3.5
 41
0.0
 71
     5
 72
     1
  1
22
  7
ONSHAPE-STANDARD-DIMENSION
 11
0.0
 21
1.0
 31
0.0
  0
POINT
  5
D5
330
CD
100
AcDbEntity
  8
DEFPOINTS
 62
     0
100
AcDbPoint
 10
156.6734298150789
 20
223.1574386867761
 30
0.0
  0
POINT
  5
D6
330
CD
100
AcDbEntity
  8
DEFPOINTS
 62
     0
100
AcDbPoint
 10
156.6734298150789
 20
245.1574386867761
 30
0.0
  0
POINT
  5
D7
330
CD
100
AcDbEntity
  8
DEFPOINTS
 62
     0
100
AcDbPoint
 10
192.293960502963
 20
245.1574386867761
 30
0.0
  0
ENDBLK
  5
D8
330
CD
100
AcDbEntity
  8
0
100
AcDbBlockEnd
  0
BLOCK
  5
DF
330
DE
100
AcDbEntity
  8
0
100
AcDbBlockBegin
  2
*D6
 70
     1
 10
0.0
 20
0.0
 30
0.0
  3
*D6
  1
*D6
  0
LINE
  5
E0
330
DE
100
AcDbEntity
  8
ANNOTATION_TEXT
 62
     7
100
AcDbLine
 10
156.6734298150789
 20
241.011105015778
 30
0.0
 11
156.6734298150789
 21
262.3124572406099
 31
0.0
  0
LINE
  5
E1
330
DE
100
AcDbEntity
  8
ANNOTATION_TEXT
 62
     7
100
AcDbLine
 10
181.6734298150789
 20
249.6574386867761
 30
0.0
 11
181.6734298150789
 21
262.3124572406099
 31
0.0
  0
LINE
  5
E2
330
DE
100
AcDbEntity
  8
ANNOTATION_TEXT
 62
     7
100
AcDbLine
 10
159.1734298150789
 20
261.0624572406099
 30
0.0
 11
179.1734298150789
 21
261.0624572406099
 31
0.0
  0
SOLID
  5
E3
330
DE
100
AcDbEntity
  8
ANNOTATION_TEXT
 62
     7
100
AcDbTrace
 10
159.1734298150789
 20
261.4791239072766
 30
0.0
 11
159.1734298150789
 21
260.6457905739432
 31
0.0
 12
156.6734298150789
 22
261.0624572406099
 32
0.0
 13
156.6734298150789
 23
261.0624572406099
 33
0.0
  0
SOLID
  5
E4
330
DE
100
AcDbEntity
  8
ANNOTATION_TEXT
 62
     7
100
AcDbTrace
 10
179.1734298150789
 20
260.6457905739432
 30
0.0
 11
179.1734298150789
 21
261.4791239072766
 31
0.0
 12
181.6734298150789
 22
261.0624572406099
 32
0.0
 13
181.6734298150789
 23
261.0624572406099
 33
0.0
  0
MTEXT
  5
E5
330
DE
100
AcDbEntity
  8
ANNOTATION_TEXT
 62
     7
100
AcDbMText
 10
168.9042245410353
 20
263.4791806738524
 30
0.0
 40
3.5
 41
0.0
 71
     5
 72
     1
  1
25
  7
ONSHAPE-STANDARD-DIMENSION
  0
POINT
  5
E6
330
DE
100
AcDbEntity
  8
DEFPOINTS
 62
     0
100
AcDbPoint
 10
156.6734298150789
 20
240.386105015778
 30
0.0
  0
POINT
  5
E7
330
DE
100
AcDbEntity
  8
DEFPOINTS
 62
     0
100
AcDbPoint
 10
181.6734298150789
 20
249.0324386867761
 30
0.0
  0
POINT
  5
E8
330
DE
100
AcDbEntity
  8
DEFPOINTS
 62
     0
100
AcDbPoint
 10
181.6734298150789
 20
261.0624572406099
 30
0.0
  0
ENDBLK
  5
E9
330
DE
100
AcDbEntity
  8
0
100
AcDbBlockEnd
  0
BLOCK
  5
F0
330
EF
100
AcDbEntity
  8
0
100
AcDbBlockBegin
  2
*D7
 70
     1
 10
0.0
 20
0.0
 30
0.0
  3
*D7
  1
*D7
  0
LINE
  5
F1
330
EF
100
AcDbEntity
  8
ANNOTATION_TEXT
 62
     7
100
AcDbLine
 10
47.88955712740733
 20
140.4294489395522
 30
0.0
 11
47.88955712740733
 21
177.7803118571966
 31
0.0
  0
LINE
  5
F2
330
EF
100
AcDbEntity
  8
ANNOTATION_TEXT
 62
     7
100
AcDbLine
 10
65.48955712740732
 20
160.4294489395522
 30
0.0
 11
65.48955712740732
 21
177.7803118571966
 31
0.0
  0
LINE
  5
F3
330
EF
100
AcDbEntity
  8
ANNOTATION_TEXT
 62
     7
100
AcDbLine
 10
50.38955712740733
 20
176.5303118571966
 30
0.0
 11
62.98955712740732
 21
176.5303118571966
 31
0.0
  0
SOLID
  5
F4
330
EF
100
AcDbEntity
  8
ANNOTATION_TEXT
 62
     7
100
AcDbTrace
 10
50.38955712740733
 20
176.9469785238633
 30
0.0
 11
50.38955712740733
 21
176.11364519053
 31
0.0
 12
47.88955712740733
 22
176.5303118571966
 32
0.0
 13
47.88955712740733
 23
176.5303118571966
 33
0.0
  0
SOLID
  5
F5
330
EF
100
AcDbEntity
  8
ANNOTATION_TEXT
 62
     7
100
AcDbTrace
 10
62.98955712740732
 20
176.11364519053
 30
0.0
 11
62.98955712740732
 21
176.9469785238633
 31
0.0
 12
65.48955712740732
 22
176.5303118571966
 32
0.0
 13
65.48955712740732
 23
176.5303118571966
 33
0.0
  0
MTEXT
  5
F6
330
EF
100
AcDbEntity
  8
ANNOTATION_TEXT
 62
     7
100
AcDbMText
 10
56.68955712740733
 20
179.237907225044
 30
0.0
 40
3.5
 41
0.0
 71
     5
 72
     1
  1
17,6
  7
ONSHAPE-STANDARD-DIMENSION
  0
POINT
  5
F7
330
EF
100
AcDbEntity
  8
DEFPOINTS
 62
     0
100
AcDbPoint
 10
47.88955712740733
 20
139.8044489395522
 30
0.0
  0
POINT
  5
F8
330
EF
100
AcDbEntity
  8
DEFPOINTS
 62
     0
100
AcDbPoint
 10
65.48955712740732
 20
159.8044489395522
 30
0.0
  0
POINT
  5
F9
330
EF
100
AcDbEntity
  8
DEFPOINTS
 62
     0
100
AcDbPoint
 10
65.48955712740732
 20
176.5303118571966
 30
0.0
  0
ENDBLK
  5
FA
330
EF
100
AcDbEntity
  8
0
100
AcDbBlockEnd
  0
BLOCK
  5
101
330
100
100
AcDbEntity
  8
0
100
AcDbBlockBegin
  2
*D8
 70
     1
 10
0.0
 20
0.0
 30
0.0
  3
*D8
  1
*D8
  0
LINE
  5
102
330
100
100
AcDbEntity
  8
ANNOTATION_TEXT
 62
     7
100
AcDbLine
 10
51.43955712740733
 20
237.8135276000216
 30
0.0
 11
51.43955712740733
 21
255.8842015887433
 31
0.0
  0
LINE
  5
103
330
100
100
AcDbEntity
  8
ANNOTATION_TEXT
 62
     7
100
AcDbLine
 10
61.93955712740733
 20
237.8135276000216
 30
0.0
 11
61.93955712740733
 21
255.8842015887433
 31
0.0
  0
LINE
  5
104
330
100
100
AcDbEntity
  8
ANNOTATION_TEXT
 62
     7
100
AcDbLine
 10
61.93955712740733
 20
254.6342015887433
 30
0.0
 11
75.85142670511385
 21
254.6342015887433
 31
0.0
  0
LINE
  5
105
330
100
100
AcDbEntity
  8
ANNOTATION_TEXT
 62
     7
100
AcDbLine
 10
53.93955712740733
 20
254.6342015887433
 30
0.0
 11
59.43955712740733
 21
254.6342015887433
 31
0.0
  0
SOLID
  5
106
330
100
100
AcDbEntity
  8
ANNOTATION_TEXT
 62
     7
100
AcDbTrace
 10
53.93955712740733
 20
255.05086825541
 30
0.0
 11
53.93955712740733
 21
254.2175349220767
 31
0.0
 12
51.43955712740733
 22
254.6342015887433
 32
0.0
 13
51.43955712740733
 23
254.6342015887433
 33
0.0
  0
SOLID
  5
107
330
100
100
AcDbEntity
  8
ANNOTATION_TEXT
 62
     7
100
AcDbTrace
 10
59.43955712740733
 20
254.2175349220767
 30
0.0
 11
59.43955712740733
 21
255.05086825541
 31
0.0
 12
61.93955712740733
 22
254.6342015887433
 32
0.0
 13
61.93955712740733
 23
254.6342015887433
 33
0.0
  0
MTEXT
  5
108
330
100
100
AcDbEntity
  8
ANNOTATION_TEXT
 62
     7
100
AcDbMText
 10
70.7393694844054
 20
257.344181152776
 30
0.0
 40
3.5
 41
0.0
 71
     5
 72
     1
  1
10,5
  7
ONSHAPE-STANDARD-DIMENSION
  0
POINT
  5
109
330
100
100
AcDbEntity
  8
DEFPOINTS
 62
     0
100
AcDbPoint
 10
51.43955712740733
 20
237.1885276000216
 30
0.0
  0
POINT
  5
10A
330
100
100
AcDbEntity
  8
DEFPOINTS
 62
     0
100
AcDbPoint
 10
61.93955712740733
 20
237.1885276000216
 30
0.0
  0
POINT
  5
10B
330
100
100
AcDbEntity
  8
DEFPOINTS
 62
     0
100
AcDbPoint
 10
61.93955712740733
 20
254.6342015887433
 30
0.0
  0
ENDBLK
  5
10C
330
100
100
AcDbEntity
  8
0
100
AcDbBlockEnd
  0
BLOCK
  5
118
330
117
100
AcDbEntity
  8
0
100
AcDbBlockBegin
  2
*D9
 70
     1
 10
0.0
 20
0.0
 30
0.0
  3
*D9
  1
*D9
  0
LINE
  5
119
330
117
100
AcDbEntity
  8
ANNOTATION_TEXT
 62
     7
100
AcDbLine
 10
51.75203164194902
 20
46.28933744623183
 30
0.0
 11
25.86580587779554
 21
60.14136322193615
 31
0.0
  0
LINE
  5
11A
330
117
100
AcDbEntity
  8
ANNOTATION_TEXT
 62
     7
100
AcDbLine
 10
61.62708261286563
 20
41.00508079824442
 30
0.0
 11
63.83133506173094
 21
39.82555922503295
 31
0.0
  0
MTEXT
  5
11B
330
117
100
AcDbEntity
  8
ANNOTATION_TEXT
 62
     7
100
AcDbMText
 10
32.39674799426195
 20
60.15687006650882
 30
0.0
 40
3.5
 41
0.0
 71
     5
 72
     1
  1
%%c6,2
  7
ONSHAPE-STANDARD-DIMENSION
 11
0.8817009795461253
 21
-0.4718086292845895
 31
0.0
  0
LINE
  5
11C
330
117
100
AcDbEntity
  8
ANNOTATION_TEXT
 62
     7
100
AcDbLine
 10
59.42283016400032
 20
42.1846023714559
 30
0.0
 11
53.95628409081434
 21
45.10981587302035
 31
0.0
  0
SOLID
  5
11D
330
117
100
AcDbEntity
  8
ANNOTATION_TEXT
 62
     7
100
AcDbTrace
 10
61.8236695417342
 20
41.37245620638864
 30
0.0
 11
61.43049568399705
 21
40.6377053901002
 31
0.0
 12
59.42283016400032
 22
42.1846023714559
 32
0.0
 13
59.42283016400032
 23
42.1846023714559
 33
0.0
  0
SOLID
  5
11E
330
117
100
AcDbEntity
  8
ANNOTATION_TEXT
 62
     7
100
AcDbTrace
 10
51.55544471308045
 20
45.92196203808761
 30
0.0
 11
51.9486185708176
 21
46.65671285437605
 31
0.0
 12
53.95628409081434
 22
45.10981587302035
 32
0.0
 13
53.95628409081434
 23
45.10981587302035
 33
0.0
  0
POINT
  5
11F
330
117
100
AcDbEntity
  8
DEFPOINTS
 62
     0
100
AcDbPoint
 10
53.95628409081434
 20
45.10981587302035
 30
0.0
  0
POINT
  5
120
330
117
100
AcDbEntity
  8
DEFPOINTS
 62
     0
100
AcDbPoint
 10
59.42283016400032
 20
42.1846023714559
 30
0.0
  0
ENDBLK
  5
121
330
117
100
AcDbEntity
  8
0
100
AcDbBlockEnd
  0
ENDSEC
  0
SECTION
  2
ENTITIES
  0
DIMENSION
  5
7E
102
{ACAD_REACTORS
102
}
102
{ACAD_XDICTIONARY
360
7F
102
}
330
1F
100
AcDbEntity
  8
ANNOTATION_TEXT
100
AcDbDimension
  2
*D1
 10
85.22929979877306
 20
114.8044489395522
 30
0.0
 11
85.22929979877306
 21
138.6200848704726
 31
0.0
 70
   160
  3
ONSHAPE-ISO-25$0
100
AcDbAlignedDimension
 13
67.48955712740732
 23
164.8044489395522
 33
22.25000000000002
 14
72.48955712740732
 24
114.8044489395522
 34
27.25000000000001
 50
90.0
100
AcDbRotatedDimension
1001
ACAD
1000
DSTYLE
1002
{
1070
     4
1000
<>
1070
   144
1040
1.0
1070
     3
1000

1070
   288
1070
     1
1002
}
1001
ACAD_DIMASSOC_CALC_DIMLFAC
1040
-1.0
1001
ACAD_DIMASSOC_DIMLFAC
1040
-1.0
1001
ACAD_DIMASSOC_OVERRIDDEN_D
1040
0.0
  0
DIMENSION
  5
95
102
{ACAD_REACTORS
102
}
102
{ACAD_XDICTIONARY
360
96
102
}
330
1F
100
AcDbEntity
  8
ANNOTATION_TEXT
100
AcDbDimension
  2
*D2
 10
72.48955712740732
 20
89.37610543371841
 30
0.0
 11
60.18955712740733
 21
89.37610543371841
 31
0.0
 70
   160
  3
ONSHAPE-ISO-25$0
100
AcDbAlignedDimension
 13
47.88955712740733
 23
114.8044489395522
 33
27.25000000000001
 14
72.48955712740732
 24
114.8044489395522
 34
27.25000000000001
100
AcDbRotatedDimension
1001
ACAD
1000
DSTYLE
1002
{
1070
     4
1000
<>
1070
   144
1040
1.0
1070
     3
1000

1070
   288
1070
     1
1002
}
1001
ACAD_DIMASSOC_CALC_DIMLFAC
1040
-1.0
1001
ACAD_DIMASSOC_DIMLFAC
1040
-1.0
1001
ACAD_DIMASSOC_OVERRIDDEN_D
1040
0.0
  0
DIMENSION
  5
A6
102
{ACAD_REACTORS
102
}
102
{ACAD_XDICTIONARY
360
A7
102
}
330
1F
100
AcDbEntity
  8
ANNOTATION_TEXT
100
AcDbDimension
  2
*D3
 10
181.6734298150789
 20
191.0326955142555
 30
0.0
 11
156.6734298150789
 21
191.0326955142555
 31
0.0
 70
   160
  3
ONSHAPE-ISO-25$0
100
AcDbAlignedDimension
 13
131.6734298150789
 23
224.2824386867761
 33
-4.799999999999986
 14
181.6734298150789
 24
219.2824386867761
 34
14.8
100
AcDbRotatedDimension
1001
ACAD
1000
DSTYLE
1002
{
1070
     4
1000
<>
1070
   144
1040
1.0
1070
     3
1000

1070
   288
1070
     1
1002
}
1001
ACAD_DIMASSOC_CALC_DIMLFAC
1040
-1.0
1001
ACAD_DIMASSOC_DIMLFAC
1040
-1.0
1001
ACAD_DIMASSOC_OVERRIDDEN_D
1040
0.0
  0
DIMENSION
  5
B7
102
{ACAD_REACTORS
102
}
102
{ACAD_XDICTIONARY
360
B8
102
}
330
1F
100
AcDbEntity
  8
ANNOTATION_TEXT
100
AcDbDimension
  2
*D4
 10
159.8290556303018
 20
242.908516564003
 30
14.80000000000001
 11
139.1809623778728
 21
257.6238080553009
 31
0.0
 70
   163
  3
ONSHAPE-ISO-25$3
100
AcDbDiametricDimension
 15
153.5178039998559
 25
247.4063608095493
 35
14.80000000000001
 40
0.0
1001
ACAD
1000
DSTYLE
1002
{
1070
     4
1000
<>
1070
   144
1040
1.0
1070
    44
1040
1.014471125
1070
     3
1000
%%c<>
1070
   288
1070
     1
1002
}
1001
ACAD_DSTYLE_DIMRADIAL_EXTE
1070
   387
1070
     1
1070
   388
1040
1.570796326794897
1070
   390
1040
4.505794284292094
1001
ACAD_DIMASSOC_CALC_DIMLFAC
1040
-1.0
1001
ACAD_DIMASSOC_DIMLFAC
1040
-1.0
1001
ACAD_DIMASSOC_OVERRIDDEN_D
1040
0.0
  0
DIMENSION
  5
C8
102
{ACAD_REACTORS
102
}
102
{ACAD_XDICTIONARY
360
C9
102
}
330
1F
100
AcDbEntity
  8
ANNOTATION_TEXT
100
AcDbDimension
  2
*D5
 10
192.293960502963
 20
245.1574386867761
 30
0.0
 11
192.293960502963
 21
235.7429958080578
 31
0.0
 70
   160
  3
ONSHAPE-ISO-25$0
100
AcDbAlignedDimension
 13
156.6734298150789
 23
223.1574386867761
 33
14.80000000000001
 14
156.6734298150789
 24
245.1574386867761
 34
14.80000000000001
 50
90.0
100
AcDbRotatedDimension
1001
ACAD
1000
DSTYLE
1002
{
1070
     4
1000
<>
1070
   144
1040
1.0
1070
     3
1000

1070
   288
1070
     1
1002
}
1001
ACAD_DIMASSOC_CALC_DIMLFAC
1040
-1.0
1001
ACAD_DIMASSOC_DIMLFAC
1040
-1.0
1001
ACAD_DIMASSOC_OVERRIDDEN_D
1040
0.0
  0
DIMENSION
  5
D9
102
{ACAD_REACTORS
102
}
102
{ACAD_XDICTIONARY
360
DA
102
}
330
1F
100
AcDbEntity
  8
ANNOTATION_TEXT
100
AcDbDimension
  2
*D6
 10
181.6734298150789
 20
261.0624572406099
 30
0.0
 11
168.9042245410353
 21
261.0624572406099
 31
0.0
 70
   160
  3
ONSHAPE-ISO-25$0
100
AcDbAlignedDimension
 13
156.6734298150789
 23
240.386105015778
 33
14.80000000000001
 14
181.6734298150789
 24
249.0324386867761
 34
14.8
100
AcDbRotatedDimension
1001
ACAD
1000
DSTYLE
1002
{
1070
     4
1000
<>
1070
   144
1040
1.0
1070
     3
1000

1070
   288
1070
     1
1002
}
1001
ACAD_DIMASSOC_CALC_DIMLFAC
1040
-1.0
1001
ACAD_DIMASSOC_DIMLFAC
1040
-1.0
1001
ACAD_DIMASSOC_OVERRIDDEN_D
1040
0.0
  0
DIMENSION
  5
EA
102
{ACAD_REACTORS
102
}
102
{ACAD_XDICTIONARY
360
EB
102
}
330
1F
100
AcDbEntity
  8
ANNOTATION_TEXT
100
AcDbDimension
  2
*D7
 10
65.48955712740732
 20
176.5303118571966
 30
0.0
 11
56.68955712740733
 21
176.5303118571966
 31
0.0
 70
   160
  3
ONSHAPE-ISO-25$0
100
AcDbAlignedDimension
 13
47.88955712740733
 23
139.8044489395522
 33
27.25000000000001
 14
65.48955712740732
 24
159.8044489395522
 34
25.25000000000002
100
AcDbRotatedDimension
1001
ACAD
1000
DSTYLE
1002
{
1070
     4
1000
<>
1070
   144
1040
1.0
1070
     3
1000

1070
   288
1070
     1
1002
}
1001
ACAD_DIMASSOC_CALC_DIMLFAC
1040
-1.0
1001
ACAD_DIMASSOC_DIMLFAC
1040
-1.0
1001
ACAD_DIMASSOC_OVERRIDDEN_D
1040
0.0
  0
DIMENSION
  5
FB
102
{ACAD_REACTORS
102
}
102
{ACAD_XDICTIONARY
360
FC
102
}
330
1F
100
AcDbEntity
  8
ANNOTATION_TEXT
100
AcDbDimension
  2
*D8
 10
61.93955712740733
 20
254.6342015887433
 30
0.0
 11
70.7393694844054
 21
254.6342015887433
 31
0.0
 70
   160
  3
ONSHAPE-ISO-25$0
100
AcDbAlignedDimension
 13
51.43955712740733
 23
237.1885276000216
 33
7.171572875253801
 14
61.93955712740733
 24
237.1885276000216
 34
7.171572875253801
100
AcDbRotatedDimension
1001
ACAD
1000
DSTYLE
1002
{
1070
     4
1000
<>
1070
   144
1040
1.0
1070
     3
1000

1070
   288
1070
     1
1002
}
1001
ACAD_DIMASSOC_CALC_DIMLFAC
1040
-1.0
1001
ACAD_DIMASSOC_DIMLFAC
1040
-1.0
1001
ACAD_DIMASSOC_OVERRIDDEN_D
1040
0.0
  0
DIMENSION
  5
113
102
{ACAD_REACTORS
102
}
102
{ACAD_XDICTIONARY
360
114
102
}
330
1F
100
AcDbEntity
  8
ANNOTATION_TEXT
100
AcDbDimension
  2
*D9
 10
59.42283016400032
 20
42.1846023714559
 30
0.0000000000000047
 11
30.93648743080519
 21
57.42798151026371
 31
0.0
 70
   163
  3
ONSHAPE-ISO-25$3
100
AcDbDiametricDimension
 15
53.95628409081434
 25
45.10981587302035
 35
0.000000000000006
 40
0.0
1001
ACAD
1000
DSTYLE
1002
{
1070
     4
1000
<>
1070
   144
1040
1.0
1070
    44
1040
0.8115769
1070
     3
1000
%%c<>
1070
   288
1070
     1
1002
}
1001
ACAD_DSTYLE_DIMRADIAL_EXTE
1070
   387
1070
     1
1070
   388
1040
0.0
1070
   390
1040
6.283185307179586
1001
ACAD_DIMASSOC_CALC_DIMLFAC
1040
-1.0
1001
ACAD_DIMASSOC_DIMLFAC
1040
-1.0
1001
ACAD_DIMASSOC_OVERRIDDEN_D
1040
0.0
  0
LINE
  5
125
330
1F
100
AcDbEntity
  8
CENTERMARKS
100
AcDbLine
 10
155.4234298150789
 20
245.1574386867761
 30
0.0
 11
157.9234298150789
 21
245.1574386867761
 31
0.0
  0
LINE
  5
126
330
1F
100
AcDbEntity
  8
CENTERMARKS
100
AcDbLine
 10
156.6734298150789
 20
243.9074386867761
 30
0.0
 11
156.6734298150789
 21
246.4074386867761
 31
0.0
  0
LINE
  5
12A
330
1F
100
AcDbEntity
  8
CENTERMARKS
100
AcDbLine
 10
155.4234298150789
 20
223.1574386867761
 30
0.0
 11
157.9234298150789
 21
223.1574386867761
 31
0.0
  0
LINE
  5
12B
330
1F
100
AcDbEntity
  8
CENTERMARKS
100
AcDbLine
 10
156.6734298150789
 20
221.9074386867761
 30
0.0
 11
156.6734298150789
 21
224.4074386867761
 31
0.0
  0
LINE
  5
12F
330
1F
100
AcDbEntity
  8
VISIBLE
100
AcDbLine
 10
72.48955712740732
 20
249.0324386867761
 30
0.0
 11
72.48955712740732
 21
219.2824386867761
 31
0.0
  0
LINE
  5
130
330
1F
100
AcDbEntity
  8
VISIBLE
100
AcDbLine
 10
72.48955712740732
 20
219.2824386867761
 30
0.0
 11
47.88955712740733
 21
219.2824386867761
 31
0.0
  0
LINE
  5
131
330
1F
100
AcDbEntity
  8
VISIBLE
100
AcDbLine
 10
47.88955712740733
 20
249.0324386867761
 30
0.0
 11
47.88955712740733
 21
219.2824386867761
 31
0.0
  0
LINE
  5
132
330
1F
100
AcDbEntity
  8
VISIBLE
100
AcDbLine
 10
72.48955712740732
 20
249.0324386867761
 30
0.0
 11
47.88955712740733
 21
249.0324386867761
 31
0.0
  0
LINE
  5
133
330
1F
100
AcDbEntity
  8
VISIBLE
100
AcDbLine
 10
49.43955712740733
 20
238.3432281384009
 30
0.0
 11
56.68955712740732
 21
242.5290175900257
 31
0.0
  0
LINE
  5
134
330
1F
100
AcDbEntity
  8
VISIBLE
100
AcDbLine
 10
49.43955712740733
 20
229.9716492351513
 30
0.0
 11
49.43955712740733
 21
238.3432281384009
 31
0.0
  0
LINE
  5
135
330
1F
100
AcDbEntity
  8
VISIBLE
100
AcDbLine
 10
56.68955712740733
 20
225.7858597835265
 30
0.0
 11
49.43955712740733
 21
229.9716492351513
 31
0.0
  0
LINE
  5
136
330
1F
100
AcDbEntity
  8
VISIBLE
100
AcDbLine
 10
63.93955712740733
 20
229.9716492351513
 30
0.0
 11
56.68955712740733
 21
225.7858597835265
 31
0.0
  0
LINE
  5
137
330
1F
100
AcDbEntity
  8
VISIBLE
100
AcDbLine
 10
63.93955712740733
 20
238.3432281384009
 30
0.0
 11
63.93955712740733
 21
229.9716492351513
 31
0.0
  0
LINE
  5
138
330
1F
100
AcDbEntity
  8
VISIBLE
100
AcDbLine
 10
56.68955712740732
 20
242.5290175900257
 30
0.0
 11
63.93955712740733
 21
238.3432281384009
 31
0.0
  0
LINE
  5
139
330
1F
100
AcDbEntity
  8
VISIBLE
100
AcDbLine
 10
56.68955712740733
 20
225.7858597835265
 30
0.0
 11
56.68955712740733
 21
227.418852945382
 31
0.0
  0
LINE
  5
13A
330
1F
100
AcDbEntity
  8
TANGENT_LINES
100
AcDbLine
 10
62.52534356503423
 20
230.7881458160791
 30
0.0
 11
56.68955712740733
 21
227.418852945382
 31
0.0
  0
LINE
  5
13B
330
1F
100
AcDbEntity
  8
VISIBLE
100
AcDbLine
 10
63.93955712740733
 20
229.9716492351513
 30
0.0
 11
62.52534356503423
 21
230.7881458160791
 31
0.0
  0
LINE
  5
13C
330
1F
100
AcDbEntity
  8
VISIBLE
100
AcDbLine
 10
56.68955712740733
 20
240.8960244281702
 30
0.0
 11
56.68955712740732
 21
242.5290175900257
 31
0.0
  0
LINE
  5
13D
330
1F
100
AcDbEntity
  8
TANGENT_LINES
100
AcDbLine
 10
50.85377068978042
 20
237.5267315574732
 30
0.0
 11
56.68955712740733
 21
240.8960244281702
 31
0.0
  0
LINE
  5
13E
330
1F
100
AcDbEntity
  8
VISIBLE
100
AcDbLine
 10
50.85377068978042
 20
237.5267315574732
 30
0.0
 11
49.43955712740733
 21
238.3432281384009
 31
0.0
  0
LINE
  5
13F
330
1F
100
AcDbEntity
  8
TANGENT_LINES
100
AcDbLine
 10
62.52534356503423
 20
237.5267315574732
 30
0.0
 11
62.52534356503423
 21
230.7881458160791
 31
0.0
  0
LINE
  5
140
330
1F
100
AcDbEntity
  8
VISIBLE
100
AcDbLine
 10
62.52534356503423
 20
237.5267315574732
 30
0.0
 11
63.93955712740733
 21
238.3432281384009
 31
0.0
  0
LINE
  5
141
330
1F
100
AcDbEntity
  8
TANGENT_LINES
100
AcDbLine
 10
56.68955712740733
 20
240.8960244281702
 30
0.0
 11
62.52534356503423
 21
237.5267315574732
 31
0.0
  0
LINE
  5
142
330
1F
100
AcDbEntity
  8
TANGENT_LINES
100
AcDbLine
 10
50.85377068978043
 20
230.7881458160791
 30
0.0
 11
50.85377068978042
 21
237.5267315574732
 31
0.0
  0
LINE
  5
143
330
1F
100
AcDbEntity
  8
VISIBLE
100
AcDbLine
 10
49.43955712740733
 20
229.9716492351513
 30
0.0
 11
50.85377068978043
 21
230.7881458160791
 31
0.0
  0
LINE
  5
144
330
1F
100
AcDbEntity
  8
TANGENT_LINES
100
AcDbLine
 10
56.68955712740733
 20
227.418852945382
 30
0.0
 11
50.85377068978043
 21
230.7881458160791
 31
0.0
  0
LINE
  5
145
330
1F
100
AcDbEntity
  8
VISIBLE
100
AcDbLine
 10
62.52534356503423
 20
230.788145816079
 30
0.0
 11
61.93955712740733
 21
231.1263497735306
 31
0.0
  0
LINE
  5
146
330
1F
100
AcDbEntity
  8
VISIBLE
100
AcDbLine
 10
61.93955712740733
 20
231.1263497735306
 30
0.0
 11
61.93955712740733
 21
237.1885276000216
 31
0.0
  0
LINE
  5
147
330
1F
100
AcDbEntity
  8
VISIBLE
100
AcDbLine
 10
62.52534356503423
 20
237.5267315574732
 30
0.0
 11
61.93955712740733
 21
237.1885276000216
 31
0.0
  0
LINE
  5
148
330
1F
100
AcDbEntity
  8
VISIBLE
100
AcDbLine
 10
56.68955712740733
 20
240.2196165132672
 30
0.0
 11
51.43955712740733
 21
237.1885276000216
 31
0.0
  0
LINE
  5
149
330
1F
100
AcDbEntity
  8
VISIBLE
100
AcDbLine
 10
51.43955712740733
 20
237.1885276000217
 30
0.0
 11
50.85377068978042
 21
237.5267315574732
 31
0.0
  0
LINE
  5
14A
330
1F
100
AcDbEntity
  8
VISIBLE
100
AcDbLine
 10
56.68955712740733
 20
240.2196165132672
 30
0.0
 11
56.68955712740733
 21
240.8960244281703
 31
0.0
  0
LINE
  5
14B
330
1F
100
AcDbEntity
  8
VISIBLE
100
AcDbLine
 10
56.68955712740733
 20
227.418852945382
 30
0.0
 11
56.68955712740733
 21
228.0952608602851
 31
0.0
  0
LINE
  5
14C
330
1F
100
AcDbEntity
  8
VISIBLE
100
AcDbLine
 10
56.68955712740733
 20
228.095260860285
 30
0.0
 11
61.93955712740733
 21
231.1263497735306
 31
0.0
  0
LINE
  5
14D
330
1F
100
AcDbEntity
  8
VISIBLE
100
AcDbLine
 10
51.43955712740733
 20
231.1263497735306
 30
0.0
 11
56.68955712740733
 21
228.095260860285
 31
0.0
  0
LINE
  5
14E
330
1F
100
AcDbEntity
  8
VISIBLE
100
AcDbLine
 10
51.43955712740733
 20
231.1263497735306
 30
0.0
 11
50.85377068978042
 21
230.788145816079
 31
0.0
  0
LINE
  5
14F
330
1F
100
AcDbEntity
  8
VISIBLE
100
AcDbLine
 10
51.43955712740733
 20
237.1885276000216
 30
0.0
 11
51.43955712740733
 21
231.1263497735306
 31
0.0
  0
LINE
  5
150
330
1F
100
AcDbEntity
  8
VISIBLE
100
AcDbLine
 10
61.93955712740733
 20
237.1885276000216
 30
0.0
 11
56.68955712740733
 21
240.2196165132672
 31
0.0
  0
CIRCLE
  5
151
330
1F
100
AcDbEntity
  8
VISIBLE
100
AcDbCircle
 10
56.68955712740733
 20
234.1574386867761
 30
0.0
 40
3.1
  0
LINE
  5
155
330
1F
100
AcDbEntity
  8
VISIBLE
100
AcDbLine
 10
156.6734298150789
 20
219.2824386867761
 30
0.0
 11
136.6734298150789
 21
219.2824386867761
 31
0.0
  0
LINE
  5
156
330
1F
100
AcDbEntity
  8
VISIBLE
100
AcDbLine
 10
136.6734298150789
 20
249.0324386867761
 30
0.0
 11
156.6734298150789
 21
249.0324386867761
 31
0.0
  0
LINE
  5
157
330
1F
100
AcDbEntity
  8
VISIBLE
100
AcDbLine
 10
136.6734298150789
 20
221.2824386867761
 30
0.0
 11
153.2822648235162
 21
221.2824386867761
 31
0.0
  0
LINE
  5
158
330
1F
100
AcDbEntity
  8
TANGENT_LINES
100
AcDbLine
 10
136.6734298150789
 20
221.2824386867761
 30
0.0
 11
136.6734298150789
 21
219.2824386867761
 31
0.0
  0
LINE
  5
159
330
1F
100
AcDbEntity
  8
TANGENT_LINES
100
AcDbLine
 10
133.6734298150789
 20
244.0324386867761
 30
0.0
 11
131.6734298150789
 21
244.0324386867761
 31
0.0
  0
LINE
  5
15A
330
1F
100
AcDbEntity
  8
VISIBLE
100
AcDbLine
 10
131.6734298150789
 20
224.2824386867761
 30
0.0
 11
131.6734298150789
 21
244.0324386867761
 31
0.0
  0
LINE
  5
15B
330
1F
100
AcDbEntity
  8
VISIBLE
100
AcDbLine
 10
153.2822648235162
 20
247.0324386867761
 30
0.0
 11
136.6734298150789
 21
247.0324386867761
 31
0.0
  0
LINE
  5
15C
330
1F
100
AcDbEntity
  8
TANGENT_LINES
100
AcDbLine
 10
136.6734298150789
 20
247.0324386867761
 30
0.0
 11
136.6734298150789
 21
249.0324386867761
 31
0.0
  0
LINE
  5
15D
330
1F
100
AcDbEntity
  8
VISIBLE
100
AcDbLine
 10
156.6734298150789
 20
240.386105015778
 30
0.0
 11
156.6734298150789
 21
227.9287723577742
 31
0.0
  0
LINE
  5
15E
330
1F
100
AcDbEntity
  8
VISIBLE
100
AcDbLine
 10
181.6734298150789
 20
249.0324386867761
 30
0.0
 11
181.6734298150789
 21
219.2824386867761
 31
0.0
  0
LINE
  5
15F
330
1F
100
AcDbEntity
  8
VISIBLE
100
AcDbLine
 10
133.6734298150789
 20
244.0324386867761
 30
0.0
 11
133.6734298150789
 21
224.2824386867761
 31
0.0
  0
LINE
  5
160
330
1F
100
AcDbEntity
  8
VISIBLE
100
AcDbLine
 10
156.6734298150789
 20
249.0324386867761
 30
0.0
 11
181.6734298150789
 21
249.0324386867761
 31
0.0
  0
LINE
  5
161
330
1F
100
AcDbEntity
  8
VISIBLE
100
AcDbLine
 10
156.6734298150789
 20
219.2824386867761
 30
0.0
 11
181.6734298150789
 21
219.2824386867761
 31
0.0
  0
LINE
  5
162
330
1F
100
AcDbEntity
  8
TANGENT_LINES
100
AcDbLine
 10
133.6734298150789
 20
224.2824386867761
 30
0.0
 11
131.6734298150789
 21
224.2824386867761
 31
0.0
  0
ARC
  5
163
330
1F
100
AcDbEntity
  8
VISIBLE
100
AcDbCircle
 10
-136.6734298150789
 20
224.2824386867761
 30
-0.0000000000000246
 40
5.0
210
-1.836970198721030E-16
220
0.0
230
-1.0
100
AcDbArc
 50
270.0
 51
0.0
  0
ARC
  5
164
330
1F
100
AcDbEntity
  8
VISIBLE
100
AcDbCircle
 10
136.6734298150789
 20
224.2824386867761
 30
-0.0000000000000003
 40
3.0
100
AcDbArc
 50
179.9999999999995
 51
270.0
  0
ARC
  5
165
330
1F
100
AcDbEntity
  8
VISIBLE
100
AcDbCircle
 10
-155.6734298150789
 20
240.386105015778
 30
-0.0000000000000287
 40
1.0
210
-1.836970198721030E-16
220
0.0
230
-1.0
100
AcDbArc
 50
101.8370041558935
 51
180.0
  0
ARC
  5
166
330
1F
100
AcDbEntity
  8
VISIBLE
100
AcDbCircle
 10
-155.6734298150789
 20
227.9287723577742
 30
-0.0000000000000287
 40
1.0
210
-1.836970198721030E-16
220
0.0
230
-1.0
100
AcDbArc
 50
180.0
 51
258.1629958441065
  0
ARC
  5
167
330
1F
100
AcDbEntity
  8
VISIBLE
100
AcDbCircle
 10
156.6734298150789
 20
223.1574386867761
 30
-0.0000000000000004
 40
3.875
100
AcDbArc
 50
101.8370041558936
 51
270.0
  0
ARC
  5
168
330
1F
100
AcDbEntity
  8
VISIBLE
100
AcDbCircle
 10
-156.6734298150789
 20
245.1574386867761
 30
-0.0000000000000284
 40
3.875
210
-1.836970198721030E-16
220
0.0
230
-1.0
100
AcDbArc
 50
281.8370041558936
 51
90.0
  0
ARC
  5
169
330
1F
100
AcDbEntity
  8
VISIBLE
100
AcDbCircle
 10
136.6734298150789
 20
244.0324386867761
 30
-0.0000000000000003
 40
3.0
100
AcDbArc
 50
90.0
 51
179.9999999999995
  0
ARC
  5
16A
330
1F
100
AcDbEntity
  8
VISIBLE
100
AcDbCircle
 10
-136.6734298150789
 20
244.0324386867761
 30
-0.0000000000000246
 40
5.0
210
-1.836970198721030E-16
220
0.0
230
-1.0
100
AcDbArc
 50
0.0
 51
90.0
  0
LINE
  5
16E
330
1F
100
AcDbEntity
  8
VISIBLE
100
AcDbLine
 10
47.88955712740733
 20
139.8044489395522
 30
0.0
 11
47.88955712740733
 21
114.8044489395522
 31
0.0
  0
LINE
  5
16F
330
1F
100
AcDbEntity
  8
VISIBLE
100
AcDbLine
 10
65.48955712740732
 20
162.8044489395522
 30
0.0
 11
67.48955712740732
 21
164.8044489395522
 31
0.0
  0
LINE
  5
170
330
1F
100
AcDbEntity
  8
VISIBLE
100
AcDbLine
 10
72.48955712740732
 20
114.8044489395522
 30
0.0
 11
47.88955712740733
 21
114.8044489395522
 31
0.0
  0
LINE
  5
171
330
1F
100
AcDbEntity
  8
VISIBLE
100
AcDbLine
 10
72.48955712740732
 20
159.8044489395522
 30
0.0
 11
72.48955712740732
 21
114.8044489395522
 31
0.0
  0
LINE
  5
172
330
1F
100
AcDbEntity
  8
TANGENT_LINES
100
AcDbLine
 10
67.48955712740732
 20
139.8044489395522
 30
0.0
 11
47.88955712740733
 21
139.8044489395522
 31
0.0
  0
LINE
  5
173
330
1F
100
AcDbEntity
  8
VISIBLE
100
AcDbLine
 10
65.48955712740732
 20
143.6794489395522
 30
0.0
 11
47.88955712740733
 21
143.6794489395522
 31
0.0
  0
LINE
  5
174
330
1F
100
AcDbEntity
  8
VISIBLE
100
AcDbLine
 10
65.48955712740732
 20
143.1956139311148
 30
0.0
 11
65.48955712740732
 21
159.8044489395522
 31
0.0
  0
LINE
  5
175
330
1F
100
AcDbEntity
  8
TANGENT_LINES
100
AcDbLine
 10
65.48955712740732
 20
159.8044489395522
 30
0.0
 11
67.48955712740732
 21
159.8044489395522
 31
0.0
  0
LINE
  5
176
330
1F
100
AcDbEntity
  8
VISIBLE
100
AcDbLine
 10
67.48955712740732
 20
159.8044489395522
 30
0.0
 11
67.48955712740732
 21
139.8044489395522
 31
0.0
  0
LINE
  5
177
330
1F
100
AcDbEntity
  8
VISIBLE
100
AcDbLine
 10
67.48955712740732
 20
164.8044489395522
 30
0.0
 11
72.48955712740732
 21
164.8044489395522
 31
0.0
  0
LINE
  5
178
330
1F
100
AcDbEntity
  8
TANGENT_LINES
100
AcDbLine
 10
72.48955712740732
 20
159.8044489395522
 30
0.0
 11
67.48955712740732
 21
159.8044489395522
 31
0.0
  0
LINE
  5
179
330
1F
100
AcDbEntity
  8
VISIBLE
100
AcDbLine
 10
65.48955712740732
 20
159.8044489395522
 30
0.0
 11
65.48955712740732
 21
162.8044489395522
 31
0.0
  0
LINE
  5
17A
330
1F
100
AcDbEntity
  8
VISIBLE
100
AcDbLine
 10
67.48955712740732
 20
164.8044489395522
 30
0.0
 11
67.48955712740732
 21
159.8044489395522
 31
0.0
  0
LINE
  5
17B
330
1F
100
AcDbEntity
  8
VISIBLE
100
AcDbLine
 10
47.88955712740733
 20
143.6794489395522
 30
0.0
 11
47.88955712740733
 21
139.8044489395522
 31
0.0
  0
LINE
  5
17C
330
1F
100
AcDbEntity
  8
VISIBLE
100
AcDbLine
 10
72.48955712740732
 20
164.8044489395522
 30
0.0
 11
72.48955712740732
 21
159.8044489395522
 31
0.0
  0
ELLIPSE
  5
17D
330
1F
100
AcDbEntity
  8
VISIBLE
100
AcDbEllipse
 10
63.61455712740732
 20
139.8044489395522
 30
0.0
 11
-3.875000000000007
 21
0.0
 31
0.0
210
0.0
220
0.0
230
1.0
 40
0.9999999999999981
 41
3.141592653589793
 42
4.207316390638825
  0
LINE
  5
181
330
1F
100
AcDbEntity
  8
VISIBLE
100
AcDbLine
 10
126.844226566514
 20
96.92084360729476
 30
0.0
 11
130.3797604724468
 21
94.87960215497546
 31
0.0
  0
LINE
  5
182
330
1F
100
AcDbEntity
  8
TANGENT_LINES
100
AcDbLine
 10
160.3191297711063
 20
101.2266085413988
 30
0.0
 11
147.8740504222231
 21
108.4117784535628
 31
0.0
  0
LINE
  5
183
330
1F
100
AcDbEntity
  8
TANGENT_LINES
100
AcDbLine
 10
148.4361096585508
 20
109.5354173775387
 30
0.0
 11
160.881189007434
 21
102.3502474653748
 31
0.0
  0
LINE
  5
184
330
1F
100
AcDbEntity
  8
TANGENT_LINES
100
AcDbLine
 10
125.8086926605813
 20
99.20972917389764
 30
0.0
 11
129.344226566514
 21
97.16848772157833
 31
0.0
  0
LINE
  5
185
330
1F
100
AcDbEntity
  8
TANGENT_LINES
100
AcDbLine
 10
132.1726536912602
 20
97.16848772157833
 30
0.0
 11
129.344226566514
 21
97.16848772157833
 31
0.0
  0
LINE
  5
186
330
1F
100
AcDbEntity
  8
VISIBLE
100
AcDbLine
 10
125.8086926605813
 20
99.20972917389764
 30
0.0
 11
125.8086926605813
 21
115.3355366472202
 31
0.0
  0
LINE
  5
187
330
1F
100
AcDbEntity
  8
VISIBLE
100
AcDbLine
 10
134.2939740348199
 20
95.94374285018674
 30
0.0
 11
146.0381938968945
 21
102.7242713489777
 31
0.0
  0
LINE
  5
188
330
1F
100
AcDbEntity
  8
VISIBLE
100
AcDbLine
 10
145.8869348732756
 20
102.6369419109739
 30
0.0
 11
158.943689007434
 21
95.09862139687479
 31
0.0
  0
LINE
  5
189
330
1F
100
AcDbEntity
  8
TANGENT_LINES
100
AcDbLine
 10
129.344226566514
 20
121.4592610041782
 30
0.0
 11
132.8797604724468
 21
119.4180195518589
 31
0.0
  0
LINE
  5
18A
330
1F
100
AcDbEntity
  8
TANGENT_LINES
100
AcDbLine
 10
129.344226566514
 20
113.2942951949009
 30
0.0
 11
125.8086926605813
 21
115.3355366472202
 31
0.0
  0
LINE
  5
18B
330
1F
100
AcDbEntity
  8
VISIBLE
100
AcDbLine
 10
129.344226566514
 20
97.16848772157833
 30
0.0
 11
129.344226566514
 21
113.2942951949009
 31
0.0
  0
LINE
  5
18C
330
1F
100
AcDbEntity
  8
VISIBLE
100
AcDbLine
 10
160.881189007434
 20
119.5813188680444
 30
0.0
 11
178.5588585370977
 21
129.787526129641
 31
0.0
  0
LINE
  5
18D
330
1F
100
AcDbEntity
  8
VISIBLE
100
AcDbLine
 10
161.1640317199087
 20
139.830434075052
 30
0.0
 11
178.5588585370977
 21
129.787526129641
 31
0.0
  0
LINE
  5
18E
330
1F
100
AcDbEntity
  8
VISIBLE
100
AcDbLine
 10
132.1726536912602
 20
113.2942951949009
 30
0.0
 11
132.1726536912602
 21
97.16848772157833
 31
0.0
  0
LINE
  5
18F
330
1F
100
AcDbEntity
  8
TANGENT_LINES
100
AcDbLine
 10
132.1726536912602
 20
113.2942951949009
 30
0.0
 11
129.344226566514
 21
113.2942951949009
 31
0.0
  0
LINE
  5
190
330
1F
100
AcDbEntity
  8
TANGENT_LINES
100
AcDbLine
 10
147.0218960961777
 20
127.5829853611361
 30
0.0
 11
160.881189007434
 21
119.5813188680444
 31
0.0
  0
LINE
  5
191
330
1F
100
AcDbEntity
  8
VISIBLE
100
AcDbLine
 10
134.2939740348199
 20
95.94374285018674
 30
0.0
 11
132.8797604724468
 21
95.12724626925902
 31
0.0
  0
LINE
  5
192
330
1F
100
AcDbEntity
  8
TANGENT_LINES
100
AcDbLine
 10
134.2939740348199
 20
116.9685298090757
 30
0.0
 11
132.8797604724468
 21
119.4180195518589
 31
0.0
  0
LINE
  5
193
330
1F
100
AcDbEntity
  8
TANGENT_LINES
100
AcDbLine
 10
160.881189007434
 20
112.5216169881142
 30
0.0
 11
160.1472647280244
 21
112.9453483683962
 31
0.0
  0
LINE
  5
194
330
1F
100
AcDbEntity
  8
VISIBLE
100
AcDbLine
 10
160.881189007434
 20
112.5216169881142
 30
0.0
 11
160.881189007434
 21
102.3502474653748
 31
0.0
  0
LINE
  5
195
330
1F
100
AcDbEntity
  8
VISIBLE
100
AcDbLine
 10
146.0381938968945
 20
123.7490583078666
 30
0.0
 11
134.2939740348199
 21
116.9685298090757
 31
0.0
  0
LINE
  5
196
330
1F
100
AcDbEntity
  8
VISIBLE
100
AcDbLine
 10
146.4986096585508
 20
120.2467160894488
 30
0.0
 11
158.943689007434
 21
113.0615461772848
 31
0.0
  0
LINE
  5
197
330
1F
100
AcDbEntity
  8
VISIBLE
100
AcDbLine
 10
132.8797604724468
 20
119.4180195518589
 30
0.0
 11
147.0218960961777
 21
127.5829853611361
 31
0.0
  0
LINE
  5
198
330
1F
100
AcDbEntity
  8
VISIBLE
100
AcDbLine
 10
160.881189007434
 20
95.29054558544456
 30
0.0
 11
178.5588585370977
 21
105.4967528470411
 31
0.0
  0
LINE
  5
199
330
1F
100
AcDbEntity
  8
VISIBLE
100
AcDbLine
 10
129.344226566514
 20
121.4592610041782
 30
0.0
 11
161.1640317199087
 21
139.830434075052
 31
0.0
  0
LINE
  5
19A
330
1F
100
AcDbEntity
  8
VISIBLE
100
AcDbLine
 10
178.5588585370977
 20
129.787526129641
 30
0.0
 11
178.5588585370977
 21
105.4967528470411
 31
0.0
  0
LINE
  5
19B
330
1F
100
AcDbEntity
  8
VISIBLE
100
AcDbLine
 10
148.4361096585508
 20
109.5354173775387
 30
0.0
 11
148.4361096585508
 21
119.1280999428939
 31
0.0
  0
ELLIPSE
  5
19C
330
1F
100
AcDbEntity
  8
VISIBLE
100
AcDbEllipse
 10
129.3442265665141
 20
101.250970626217
 30
0.0
 11
-2.5
 21
-4.330127018922198
 31
0.0
210
0.0
220
0.0
230
-1.0
 40
0.5773502691896258
 41
0.0
 42
0.7853981633974497
  0
ELLIPSE
  5
19D
330
1F
100
AcDbEntity
  8
VISIBLE
100
AcDbEllipse
 10
132.8797604724468
 20
99.20972917389764
 30
0.0
 11
-2.5
 21
-4.330127018922198
 31
0.0
210
0.0
220
0.0
230
-1.0
 40
0.5773502691896258
 41
5.497787143782139
 42
7.068583470577035
  0
ELLIPSE
  5
19E
330
1F
100
AcDbEntity
  8
VISIBLE
100
AcDbEllipse
 10
154.6586493329924
 20
111.0285171828265
 30
0.0
 11
-1.550000000000001
 21
2.68467875173176
 31
0.0
210
0.0
220
0.0
230
-1.0
 40
0.5773502691896261
 41
0.0
 42
6.283185307179586
  0
ELLIPSE
  5
19F
330
1F
100
AcDbEntity
  8
VISIBLE
100
AcDbEllipse
 10
134.2939740348199
 20
98.39323259296992
 30
0.0
 11
1.5
 21
2.598076211353316
 31
0.0
210
0.0
220
0.0
230
1.0
 40
0.577350269189625
 41
2.356194490192345
 42
3.926990816987248
  0
ELLIPSE
  5
1A0
330
1F
100
AcDbEntity
  8
VISIBLE
100
AcDbEllipse
 10
148.4361096585508
 20
105.6396397487035
 30
0.0
 11
-1.9375
 21
-3.355848439664697
 31
0.0
210
0.0
220
0.0
230
-1.0
 40
0.5773502691896262
 41
0.2803255736515768
 42
2.149599794099748
  0
ELLIPSE
  5
1A1
330
1F
100
AcDbEntity
  8
VISIBLE
100
AcDbEllipse
 10
147.7290028773643
 20
109.1271690870749
 30
0.0
 11
-0.5
 21
-0.8660254037844339
 31
0.0
210
0.0
220
0.0
230
-1.0
 40
0.5773502691896273
 41
3.926990816987228
 42
5.291192447689537
  0
ELLIPSE
  5
1A2
330
1F
100
AcDbEntity
  8
VISIBLE
100
AcDbEllipse
 10
160.1740822262475
 20
112.1133686976503
 30
0.0
 11
-0.5
 21
-0.8660254037844339
 31
0.0
210
0.0
220
0.0
230
-1.0
 40
0.5773502691896273
 41
2.562789186284947
 42
3.926990816987245
  0
ELLIPSE
  5
1A3
330
1F
100
AcDbEntity
  8
VISIBLE
100
AcDbEllipse
 10
132.8797604724468
 20
115.3355366472202
 30
0.0
 11
-2.5
 21
-4.330127018922198
 31
0.0
210
0.0
220
0.0
230
-1.0
 40
0.5773502691896258
 41
0.7853981633974529
 42
2.356194490192354
  0
ELLIPSE
  5
1A4
330
1F
100
AcDbEntity
  8
VISIBLE
100
AcDbEllipse
 10
148.4361096585508
 20
123.6025645291135
 30
0.0
 11
1.9375
 21
3.355848439664697
 31
0.0
210
0.0
220
0.0
230
1.0
 40
0.5773502691896262
 41
1.851121900446475
 42
3.141592653589793
  0
ELLIPSE
  5
1A5
330
1F
100
AcDbEntity
  8
VISIBLE
100
AcDbEllipse
 10
134.2939740348199
 20
114.5190400662925
 30
0.0
 11
1.5
 21
2.598076211353316
 31
0.0
210
0.0
220
0.0
230
1.0
 40
0.577350269189625
 41
0.785398163397449
 42
2.356194490192345
  0
ELLIPSE
  5
1A6
330
1F
100
AcDbEntity
  8
VISIBLE
100
AcDbEllipse
 10
129.3442265665141
 20
117.3767780995395
 30
0.0
 11
-2.5
 21
-4.330127018922198
 31
0.0
210
0.0
220
0.0
230
-1.0
 40
0.5773502691896258
 41
0.7853981633974497
 42
2.356194490192346
  0
ELLIPSE
  5
1A7
330
1F
100
AcDbEntity
  8
VISIBLE
100
AcDbEllipse
 10
160.881189007434
 20
116.4173946169495
 30
0.0
 11
-1.9375
 21
-3.355848439664697
 31
0.0
210
0.0
220
0.0
230
-1.0
 40
0.5773502691896262
 41
5.704381839874732
 42
8.63937979737193
  0
ELLIPSE
  5
1A8
330
1F
100
AcDbEntity
  8
VISIBLE
100
AcDbEllipse
 10
160.1740822262475
 20
101.9419991749109
 30
0.0
 11
-0.5
 21
-0.8660254037844339
 31
0.0
210
0.0
220
0.0
230
-1.0
 40
0.5773502691896273
 41
3.926990816987245
 42
5.291192447689539
  0
ELLIPSE
  5
1A9
330
1F
100
AcDbEntity
  8
VISIBLE
100
AcDbEllipse
 10
160.881189007434
 20
98.4544698365395
 30
0.0
 11
1.9375
 21
3.355848439664697
 31
0.0
210
0.0
220
0.0
230
1.0
 40
0.5773502691896262
 41
0.991992859490044
 42
3.926990816987241
  0
ELLIPSE
  5
1AA
330
1F
100
AcDbEntity
  8
VISIBLE
100
AcDbEllipse
 10
149.7619348732756
 20
122.8370989844937
 30
0.0
 11
2.74003877709788
 21
-4.745886376642417
 31
0.0
210
0.0
220
0.0
230
1.0
 40
0.5773502691896251
 41
3.141592653589793
 42
4.207316390638823
  0
CIRCLE
  5
1AE
330
1F
100
AcDbEntity
  8
VISIBLE
100
AcDbCircle
 10
56.68955712740733
 20
43.64720912223812
 30
0.0
 40
3.1
  0
LINE
  5
1AF
330
1F
100
AcDbEntity
  8
VISIBLE
100
AcDbLine
 10
47.88955712740733
 20
37.41854279323621
 30
0.0
 11
47.88955712740733
 21
49.87587545124004
 31
0.0
  0
LINE
  5
1B0
330
1F
100
AcDbEntity
  8
TANGENT_LINES
100
AcDbLine
 10
47.88955712740733
 20
37.41854279323621
 30
0.0
 11
65.48955712740732
 21
37.41854279323621
 31
0.0
  0
LINE
  5
1B1
330
1F
100
AcDbEntity
  8
VISIBLE
100
AcDbLine
 10
67.48955712740732
 20
53.52220912223811
 30
0.0
 11
67.48955712740732
 21
33.77220912223811
 31
0.0
  0
LINE
  5
1B2
330
1F
100
AcDbEntity
  8
TANGENT_LINES
100
AcDbLine
 10
67.48955712740732
 20
33.77220912223811
 30
0.0
 11
72.48955712740732
 21
33.77220912223811
 31
0.0
  0
LINE
  5
1B3
330
1F
100
AcDbEntity
  8
VISIBLE
100
AcDbLine
 10
72.48955712740732
 20
28.77220912223812
 30
0.0
 11
67.48955712740732
 21
28.77220912223812
 31
0.0
  0
LINE
  5
1B4
330
1F
100
AcDbEntity
  8
VISIBLE
100
AcDbLine
 10
67.48955712740732
 20
58.52220912223812
 30
0.0
 11
47.88955712740733
 21
58.52220912223812
 31
0.0
  0
LINE
  5
1B5
330
1F
100
AcDbEntity
  8
TANGENT_LINES
100
AcDbLine
 10
72.48955712740732
 20
53.52220912223811
 30
0.0
 11
67.48955712740732
 21
53.52220912223811
 31
0.0
  0
LINE
  5
1B6
330
1F
100
AcDbEntity
  8
TANGENT_LINES
100
AcDbLine
 10
47.88955712740733
 20
50.85461056323965
 30
0.0
 11
65.48955712740732
 21
50.85461056323965
 31
0.0
  0
LINE
  5
1B7
330
1F
100
AcDbEntity
  8
TANGENT_LINES
100
AcDbLine
 10
65.48955712740732
 20
36.4398076812366
 30
0.0
 11
47.88955712740733
 21
36.4398076812366
 31
0.0
  0
LINE
  5
1B8
330
1F
100
AcDbEntity
  8
VISIBLE
100
AcDbLine
 10
67.48955712740732
 20
58.52220912223812
 30
0.0
 11
72.48955712740732
 21
58.52220912223812
 31
0.0
  0
LINE
  5
1B9
330
1F
100
AcDbEntity
  8
TANGENT_LINES
100
AcDbLine
 10
65.48955712740732
 20
53.52220912223811
 30
0.0
 11
67.48955712740732
 21
53.52220912223811
 31
0.0
  0
LINE
  5
1BA
330
1F
100
AcDbEntity
  8
VISIBLE
100
AcDbLine
 10
72.48955712740732
 20
53.52220912223811
 30
0.0
 11
72.48955712740732
 21
33.77220912223811
 31
0.0
  0
LINE
  5
1BB
330
1F
100
AcDbEntity
  8
VISIBLE
100
AcDbLine
 10
65.48955712740732
 20
33.77220912223811
 30
0.0
 11
65.48955712740732
 21
53.52220912223811
 31
0.0
  0
LINE
  5
1BC
330
1F
100
AcDbEntity
  8
TANGENT_LINES
100
AcDbLine
 10
65.48955712740732
 20
33.77220912223811
 30
0.0
 11
67.48955712740732
 21
33.77220912223811
 31
0.0
  0
LINE
  5
1BD
330
1F
100
AcDbEntity
  8
VISIBLE
100
AcDbLine
 10
65.48955712740732
 20
56.52220912223812
 30
0.0
 11
67.48955712740732
 21
58.52220912223812
 31
0.0
  0
LINE
  5
1BE
330
1F
100
AcDbEntity
  8
VISIBLE
100
AcDbLine
 10
65.48955712740732
 20
30.77220912223812
 30
0.0
 11
67.48955712740732
 21
28.77220912223812
 31
0.0
  0
LINE
  5
1BF
330
1F
100
AcDbEntity
  8
VISIBLE
100
AcDbLine
 10
67.48955712740732
 20
28.77220912223812
 30
0.0
 11
47.88955712740733
 21
28.77220912223812
 31
0.0
  0
LINE
  5
1C0
330
1F
100
AcDbEntity
  8
TANGENT_LINES
100
AcDbLine
 10
65.48955712740732
 20
49.87587545124004
 30
0.0
 11
47.88955712740733
 21
49.87587545124004
 31
0.0
  0
LINE
  5
1C1
330
1F
100
AcDbEntity
  8
VISIBLE
100
AcDbLine
 10
47.88955712740733
 20
36.4398076812366
 30
0.0
 11
47.88955712740733
 21
37.41854279323621
 31
0.0
  0
LINE
  5
1C2
330
1F
100
AcDbEntity
  8
VISIBLE
100
AcDbLine
 10
47.88955712740733
 20
36.43980768123659
 30
0.0
 11
47.88955712740733
 21
28.77220912223812
 31
0.0
  0
LINE
  5
1C3
330
1F
100
AcDbEntity
  8
VISIBLE
100
AcDbLine
 10
47.88955712740733
 20
49.87587545124004
 30
0.0
 11
47.88955712740733
 21
50.85461056323965
 31
0.0
  0
LINE
  5
1C4
330
1F
100
AcDbEntity
  8
VISIBLE
100
AcDbLine
 10
47.88955712740733
 20
50.85461056323965
 30
0.0
 11
47.88955712740733
 21
58.52220912223812
 31
0.0
  0
LINE
  5
1C5
330
1F
100
AcDbEntity
  8
VISIBLE
100
AcDbLine
 10
72.48955712740732
 20
33.77220912223812
 30
0.0
 11
72.48955712740732
 21
28.77220912223812
 31
0.0
  0
LINE
  5
1C6
330
1F
100
AcDbEntity
  8
VISIBLE
100
AcDbLine
 10
65.48955712740732
 20
53.52220912223812
 30
0.0
 11
65.48955712740732
 21
56.52220912223812
 31
0.0
  0
LINE
  5
1C7
330
1F
100
AcDbEntity
  8
VISIBLE
100
AcDbLine
 10
67.48955712740732
 20
58.52220912223812
 30
0.0
 11
67.48955712740732
 21
53.52220912223812
 31
0.0
  0
LINE
  5
1C8
330
1F
100
AcDbEntity
  8
VISIBLE
100
AcDbLine
 10
72.48955712740732
 20
58.52220912223812
 30
0.0
 11
72.48955712740732
 21
53.52220912223812
 31
0.0
  0
LINE
  5
1C9
330
1F
100
AcDbEntity
  8
VISIBLE
100
AcDbLine
 10
65.48955712740732
 20
30.77220912223812
 30
0.0
 11
65.48955712740732
 21
33.77220912223812
 31
0.0
  0
LINE
  5
1CA
330
1F
100
AcDbEntity
  8
VISIBLE
100
AcDbLine
 10
67.48955712740732
 20
33.77220912223812
 30
0.0
 11
67.48955712740732
 21
28.77220912223812
 31
0.0
  0
LWPOLYLINE
  5
1CB
330
1F
100
AcDbEntity
  8
ANNOTATION_TEXT
  6
CONTINUOUS
 62
     7
100
AcDbPolyline
 90
       30
 70
     1
 43
0.0
 10
60.10075640879973
 20
212.5449386867761
 10
60.10075640879973
 20
216.0306335096644
 10
59.7455111771921
 20
216.0306335096644
 10
58.8013694878188
 20
215.2986852807816
 10
59.0254839292357
 20
215.0101975423619
 10
59.0968980555981
 20
215.0686848550322
 10
59.16689656547548
 20
215.1261290818715
 10
59.23547945886785
 20
215.1825302228796
 10
59.30264673577521
 20
215.2378882780568
 10
59.36839839619755
 20
215.2922032474028
 10
59.43273444013488
 20
215.3454751309178
 10
59.4956548675872
 20
215.3977039286017
 10
59.5571596785545
 20
215.4488896404546
 10
59.5571596785545
 20
215.4488896404546
 10
59.59471076847275
 20
215.4804802399096
 10
59.63106976029837
 20
215.5132629374573
 10
59.66623665403134
 20
215.5472377330976
 10
59.70021144967166
 20
215.5824046268306
 10
59.70021144967166
 20
215.5824046268306
 10
59.69574108182425
 20
215.5125178761494
 10
59.69186676302316
 20
215.4411410028524
 10
59.68858849326839
 20
215.3682740069396
 10
59.68590627255995
 20
215.293916888411
 10
59.68382010089782
 20
215.2180696472666
 10
59.68232997828202
 20
215.1407322835063
 10
59.68143590471254
 20
215.0619047971303
 10
59.68113788018938
 20
214.9815871881385
 10
59.68113788018938
 20
214.9815871881385
 10
59.68113788018938
 20
212.5449386867761
 10
60.10075640879973
 20
212.5449386867761
  0
LWPOLYLINE
  5
1CC
330
1F
100
AcDbEntity
  8
ANNOTATION_TEXT
  6
CONTINUOUS
 62
     7
100
AcDbPolyline
 90
       81
 70
     1
 43
0.0
 10
61.50981635430382
 20
214.8981403216535
 10
61.51100845239645
 20
214.8598441704273
 10
61.51458474667439
 20
214.8236341908633
 10
61.5205452371376
 20
214.7895103829614
 10
61.5288899237861
 20
214.7574727467216
 10
61.5288899237861
 20
214.7574727467216
 10
61.53976781888147
 20
214.7287133802366
 10
61.55332793468529
 20
214.7020401854137
 10
61.56957027119755
 20
214.677453162253
 10
61.58849482841826
 20
214.6549523107543
 10
61.58849482841826
 20
214.6549523107543
 10
61.60861148373161
 20
214.6337925696099
 10
61.63081431070708
 20
214.6156130736971
 10
61.65510330934468
 20
214.6004138230159
 10
61.68147847964441
 20
214.5881948175663
 10
61.68147847964441
 20
214.5881948175663
 10
61.70993982160626
 20
214.5788070450867
 10
61.74048733523024
 20
214.5721014933156
 10
61.77312102051635
 20
214.568078162253
 10
61.80784087746458
 20
214.5667370518987
 10
61.80784087746458
 20
214.5667370518987
 10
61.84270974667439
 20
214.568078162253
 10
61.87579046874523
 20
214.5721014933156
 10
61.90708304367711
 20
214.5788070450867
 10
61.93658747147003
 20
214.5881948175663
 10
61.93658747147003
 20
214.5881948175663
 10
61.96415473986239
 20
214.6004138230159
 10
61.98963583659264
 20
214.6156130736971
 10
62.01303076166076
 20
214.6337925696099
 10
62.03433951506675
 20
214.6549523107543
 10
62.03433951506675
 20
214.6549523107543
 10
62.05326407228746
 20
214.678496248084
 10
62.06950640879973
 20
214.7038283325527
 10
62.08306652460354
 20
214.7309485641603
 10
62.09394441969891
 20
214.7598569429069
 10
62.09394441969891
 20
214.7598569429069
 10
62.10333219217847
 20
214.7917455668851
 10
62.11003774394959
 20
214.8254223380023
 10
62.11406107501226
 20
214.8608872562584
 10
62.11540218536648
 20
214.8981403216535
 10
62.11540218536648
 20
214.8981403216535
 10
62.11406107501226
 20
214.9364364728796
 10
62.11003774394959
 20
214.9726464524437
 10
62.10333219217847
 20
215.0067702603456
 10
62.09394441969891
 20
215.0388078965854
 10
62.09394441969891
 20
215.0388078965854
 10
62.08321553686512
 20
215.0686103489014
 10
62.07010245784605
 20
215.0960286050322
 10
62.05460518264169
 20
215.1210626649777
 10
62.03672371125204
 20
215.143712528738
 10
62.03672371125204
 20
215.143712528738
 10
62.01541495784605
 20
215.1638291840513
 10
61.99202003277793
 20
215.1812636186562
 10
61.96653893604768
 20
215.1960158325527
 10
61.93897166765531
 20
215.2080858257407
 10
61.93897166765531
 20
215.2080858257407
 10
61.90931822760081
 20
215.2174735982202
 10
61.8775786158842
 20
215.2241791499914
 10
61.84375283250545
 20
215.228202481054
 10
61.80784087746458
 20
215.2295435914083
 10
61.80784087746458
 20
215.2295435914083
 10
61.7719289224237
 20
215.2280534687925
 10
61.73810313904496
 20
215.223583100945
 10
61.70636352732834
 20
215.216132487866
 10
61.67671008727384
 20
215.2057016295554
 10
61.67671008727384
 20
215.2057016295554
 10
61.65033491697411
 20
215.1936316363674
 10
61.62604591833651
 20
215.1788794224709
 10
61.60384309136104
 20
215.161444987866
 10
61.58372643604768
 20
215.1413283325527
 10
61.58372643604768
 20
215.1413283325527
 10
61.56584496465803
 20
215.1186784687925
 10
61.55034768945368
 20
215.093644408847
 10
61.5372346104346
 20
215.0662261527162
 10
61.52650572760081
 20
215.0364237004001
 10
61.52650572760081
 20
215.0364237004001
 10
61.51920412678338
 20
215.0054291499914
 10
61.51398869762806
 20
214.9720504033974
 10
61.51085944013488
 20
214.9362874606181
 10
61.50981635430382
 20
214.8981403216535
 10
61.50981635430382
 20
214.8981403216535
  0
LWPOLYLINE
  5
1CD
330
1F
100
AcDbEntity
  8
ANNOTATION_TEXT
  6
CONTINUOUS
 62
     7
100
AcDbPolyline
 90
       81
 70
     1
 43
0.0
 10
61.50981635430382
 20
212.8095844633429
 10
61.51100845239645
 20
212.7712883121167
 10
61.51458474667439
 20
212.7350783325527
 10
61.5205452371376
 20
212.7009545246508
 10
61.5288899237861
 20
212.668916888411
 10
61.5288899237861
 20
212.668916888411
 10
61.53976781888147
 20
212.6391144360949
 10
61.55332793468529
 20
212.6116961799641
 10
61.56957027119755
 20
212.5866621200186
 10
61.58849482841826
 20
212.5640122562584
 10
61.58849482841826
 20
212.5640122562584
 10
61.60861148373161
 20
212.543895600945
 10
61.63081431070708
 20
212.5264611663401
 10
61.65510330934468
 20
212.5117089524437
 10
61.68147847964441
 20
212.4996389592557
 10
61.68147847964441
 20
212.4996389592557
 10
61.70993982160626
 20
212.489208100945
 10
61.74048733523024
 20
212.481757487866
 10
61.77312102051635
 20
212.4772871200186
 10
61.80784087746458
 20
212.4757969974028
 10
61.80784087746458
 20
212.4757969974028
 10
61.84270974667439
 20
212.4772871200186
 10
61.87579046874523
 20
212.481757487866
 10
61.90708304367711
 20
212.489208100945
 10
61.93658747147003
 20
212.4996389592557
 10
61.93658747147003
 20
212.4996389592557
 10
61.96415473986239
 20
212.5117089524437
 10
61.98963583659264
 20
212.5264611663401
 10
62.01303076166076
 20
212.543895600945
 10
62.03433951506675
 20
212.5640122562584
 10
62.03433951506675
 20
212.5640122562584
 10
62.05326407228746
 20
212.5875561935881
 10
62.06950640879973
 20
212.6128882780568
 10
62.08306652460354
 20
212.6400085096644
 10
62.09394441969891
 20
212.668916888411
 10
62.09394441969891
 20
212.668916888411
 10
62.10333219217847
 20
212.7009545246508
 10
62.11003774394959
 20
212.7350783325527
 10
62.11406107501226
 20
212.7712883121167
 10
62.11540218536648
 20
212.8095844633429
 10
62.11540218536648
 20
212.8095844633429
 10
62.11406107501226
 20
212.8477316023074
 10
62.11003774394959
 20
212.8834945450867
 10
62.10333219217847
 20
212.9168732916807
 10
62.09394441969891
 20
212.9478678420895
 10
62.09394441969891
 20
212.9478678420895
 10
62.08306652460354
 20
212.9766272085745
 10
62.06950640879973
 20
213.0033004033974
 10
62.05326407228746
 20
213.0278874265581
 10
62.03433951506675
 20
213.0503882780568
 10
62.03433951506675
 20
213.0503882780568
 10
62.01303076166076
 20
213.0705049333701
 10
61.98963583659264
 20
213.087939367975
 10
61.96415473986239
 20
213.1026915818715
 10
61.93658747147003
 20
213.1147615750595
 10
61.93658747147003
 20
213.1147615750595
 10
61.90708304367711
 20
213.1241493475391
 10
61.87579046874523
 20
213.1308548993102
 10
61.84270974667439
 20
213.1348782303728
 10
61.80784087746458
 20
213.1362193407271
 10
61.80784087746458
 20
213.1362193407271
 10
61.77297200825477
 20
213.1348782303728
 10
61.73989128618392
 20
213.1308548993102
 10
61.70859871125204
 20
213.1241493475391
 10
61.67909428345913
 20
213.1147615750595
 10
61.67909428345913
 20
213.1147615750595
 10
61.6527191131594
 20
213.1026915818715
 10
61.6284301145218
 20
213.087939367975
 10
61.60622728754632
 20
213.0705049333701
 10
61.58611063223297
 20
213.0503882780568
 10
61.58611063223297
 20
213.0503882780568
 10
61.56822916084332
 20
213.0278874265581
 10
61.55273188563896
 20
213.0033004033974
 10
61.53961880661989
 20
212.9766272085745
 10
61.5288899237861
 20
212.9478678420895
 10
61.5288899237861
 20
212.9478678420895
 10
61.5205452371376
 20
212.9168732916807
 10
61.51458474667439
 20
212.8834945450867
 10
61.51100845239645
 20
212.8477316023074
 10
61.50981635430382
 20
212.8095844633429
 10
61.50981635430382
 20
212.8095844633429
  0
LWPOLYLINE
  5
1CE
330
1F
100
AcDbEntity
  8
ANNOTATION_TEXT
  6
CONTINUOUS
 62
     7
100
AcDbPolyline
 90
       30
 70
     1
 43
0.0
 10
64.20157384749183
 20
212.5449386867761
 10
64.20157384749183
 20
216.0306335096644
 10
63.8463286158842
 20
216.0306335096644
 10
62.9021869265109
 20
215.2986852807816
 10
63.12630136792779
 20
215.0101975423619
 10
63.19771549429019
 20
215.0686848550322
 10
63.26771400416757
 20
215.1261290818715
 10
63.33629689755995
 20
215.1825302228796
 10
63.4034641744673
 20
215.2378882780568
 10
63.46921583488965
 20
215.2922032474028
 10
63.53355187882698
 20
215.3454751309178
 10
63.5964723062793
 20
215.3977039286017
 10
63.6579771172466
 20
215.4488896404546
 10
63.6579771172466
 20
215.4488896404546
 10
63.69552820716485
 20
215.4804802399096
 10
63.73188719899046
 20
215.5132629374573
 10
63.76705409272343
 20
215.5472377330976
 10
63.80102888836376
 20
215.5824046268306
 10
63.80102888836376
 20
215.5824046268306
 10
63.79655852051635
 20
215.5125178761494
 10
63.79268420171526
 20
215.4411410028524
 10
63.78940593196049
 20
215.3682740069396
 10
63.78672371125204
 20
215.293916888411
 10
63.78463753958992
 20
215.2180696472666
 10
63.78314741697412
 20
215.1407322835063
 10
63.78225334340463
 20
215.0619047971303
 10
63.78195531888147
 20
214.9815871881385
 10
63.78195531888147
 20
214.9815871881385
 10
63.78195531888147
 20
212.5449386867761
 10
64.20157384749183
 20
212.5449386867761
  0
LWPOLYLINE
  5
1CF
330
1F
100
AcDbEntity
  8
ANNOTATION_TEXT
  6
CONTINUOUS
 62
     7
100
AcDbPolyline
 90
       30
 70
     1
 43
0.0
 10
156.1477145562233
 20
211.5324386867761
 10
156.1477145562233
 20
215.0181335096644
 10
155.7924693246157
 20
215.0181335096644
 10
154.8483276352424
 20
214.2861852807816
 10
155.0724420766593
 20
213.9976975423619
 10
155.1438562030216
 20
214.0561848550323
 10
155.213854712899
 20
214.1136290818715
 10
155.2824376062914
 20
214.1700302228797
 10
155.3496048831988
 20
214.2253882780568
 10
155.4153565436211
 20
214.2797032474028
 10
155.4796925875584
 20
214.3329751309178
 10
155.5426130150107
 20
214.3852039286017
 10
155.6041178259781
 20
214.4363896404546
 10
155.6041178259781
 20
214.4363896404546
 10
155.6416689158963
 20
214.4679802399096
 10
155.6780279077219
 20
214.5007629374573
 10
155.7131948014549
 20
214.5347377330976
 10
155.7471695970952
 20
214.5699046268306
 10
155.7471695970952
 20
214.5699046268306
 10
155.7426992292478
 20
214.5000178761494
 10
155.7388249104467
 20
214.4286410028524
 10
155.735546640692
 20
214.3557740069396
 10
155.7328644199835
 20
214.281416888411
 10
155.7307782483214
 20
214.2055696472666
 10
155.7292881257056
 20
214.1282322835063
 10
155.7283940521361
 20
214.0494047971303
 10
155.7280960276129
 20
213.9690871881385
 10
155.7280960276129
 20
213.9690871881385
 10
155.7280960276129
 20
211.5324386867761
 10
156.1477145562233
 20
211.5324386867761
  0
LWPOLYLINE
  5
1D0
330
1F
100
AcDbEntity
  8
ANNOTATION_TEXT
  6
CONTINUOUS
 62
     7
100
AcDbPolyline
 90
       81
 70
     1
 43
0.0
 10
157.5567745017274
 20
213.8856403216535
 10
157.55796659982
 20
213.8473441704273
 10
157.561542894098
 20
213.8111341908633
 10
157.5675033845612
 20
213.7770103829614
 10
157.5758480712097
 20
213.7449727467216
 10
157.5758480712097
 20
213.7449727467216
 10
157.586725966305
 20
213.7162133802366
 10
157.6002860821089
 20
213.6895401854137
 10
157.6165284186211
 20
213.664953162253
 10
157.6354529758418
 20
213.6424523107543
 10
157.6354529758418
 20
213.6424523107543
 10
157.6555696311552
 20
213.6212925696099
 10
157.6777724581306
 20
213.6031130736971
 10
157.7020614567683
 20
213.5879138230159
 10
157.728436627068
 20
213.5756948175663
 10
157.728436627068
 20
213.5756948175663
 10
157.7568979690298
 20
213.5663070450867
 10
157.7874454826538
 20
213.5596014933156
 10
157.8200791679399
 20
213.555578162253
 10
157.8547990248881
 20
213.5542370518987
 10
157.8547990248881
 20
213.5542370518987
 10
157.889667894098
 20
213.555578162253
 10
157.9227486161688
 20
213.5596014933156
 10
157.9540411911007
 20
213.5663070450867
 10
157.9835456188936
 20
213.5756948175663
 10
157.9835456188936
 20
213.5756948175663
 10
158.011112887286
 20
213.5879138230159
 10
158.0365939840162
 20
213.6031130736971
 10
158.0599889090843
 20
213.6212925696099
 10
158.0812976624903
 20
213.6424523107543
 10
158.0812976624903
 20
213.6424523107543
 10
158.100222219711
 20
213.665996248084
 10
158.1164645562233
 20
213.6913283325527
 10
158.1300246720271
 20
213.7184485641603
 10
158.1409025671225
 20
213.7473569429069
 10
158.1409025671225
 20
213.7473569429069
 10
158.150290339602
 20
213.7792455668851
 10
158.1569958913732
 20
213.8129223380023
 10
158.1610192224358
 20
213.8483872562584
 10
158.1623603327901
 20
213.8856403216535
 10
158.1623603327901
 20
213.8856403216535
 10
158.1610192224358
 20
213.9239364728797
 10
158.1569958913732
 20
213.9601464524437
 10
158.150290339602
 20
213.9942702603456
 10
158.1409025671225
 20
214.0263078965854
 10
158.1409025671225
 20
214.0263078965854
 10
158.1301736842887
 20
214.0561103489015
 10
158.1170606052696
 20
214.0835286050323
 10
158.1015633300653
 20
214.1085626649777
 10
158.0836818586756
 20
214.131212528738
 10
158.0836818586756
 20
214.131212528738
 10
158.0623731052696
 20
214.1513291840513
 10
158.0389781802015
 20
214.1687636186562
 10
158.0134970834712
 20
214.1835158325527
 10
157.9859298150789
 20
214.1955858257407
 10
157.9859298150789
 20
214.1955858257407
 10
157.9562763750244
 20
214.2049735982202
 10
157.9245367633078
 20
214.2116791499914
 10
157.890710979929
 20
214.2157024810541
 10
157.8547990248881
 20
214.2170435914083
 10
157.8547990248881
 20
214.2170435914083
 10
157.8188870698473
 20
214.2155534687925
 10
157.7850612864685
 20
214.211083100945
 10
157.7533216747519
 20
214.203632487866
 10
157.7236682346974
 20
214.1932016295554
 10
157.7236682346974
 20
214.1932016295554
 10
157.6972930643977
 20
214.1811316363674
 10
157.6730040657601
 20
214.166379422471
 10
157.6508012387846
 20
214.148944987866
 10
157.6306845834712
 20
214.1288283325527
 10
157.6306845834712
 20
214.1288283325527
 10
157.6128031120816
 20
214.1061784687925
 10
157.5973058368772
 20
214.081144408847
 10
157.5841927578582
 20
214.0537261527162
 10
157.5734638750244
 20
214.0239237004001
 10
157.5734638750244
 20
214.0239237004001
 10
157.5661622742069
 20
213.9929291499914
 10
157.5609468450516
 20
213.9595504033974
 10
157.5578175875584
 20
213.9237874606181
 10
157.5567745017274
 20
213.8856403216535
 10
157.5567745017274
 20
213.8856403216535
  0
LWPOLYLINE
  5
1D1
330
1F
100
AcDbEntity
  8
ANNOTATION_TEXT
  6
CONTINUOUS
 62
     7
100
AcDbPolyline
 90
       81
 70
     1
 43
0.0
 10
157.5567745017274
 20
211.7970844633429
 10
157.55796659982
 20
211.7587883121167
 10
157.561542894098
 20
211.7225783325527
 10
157.5675033845612
 20
211.6884545246508
 10
157.5758480712097
 20
211.656416888411
 10
157.5758480712097
 20
211.656416888411
 10
157.586725966305
 20
211.6266144360949
 10
157.6002860821089
 20
211.5991961799641
 10
157.6165284186211
 20
211.5741621200186
 10
157.6354529758418
 20
211.5515122562584
 10
157.6354529758418
 20
211.5515122562584
 10
157.6555696311552
 20
211.531395600945
 10
157.6777724581306
 20
211.5139611663402
 10
157.7020614567683
 20
211.4992089524437
 10
157.728436627068
 20
211.4871389592557
 10
157.728436627068
 20
211.4871389592557
 10
157.7568979690298
 20
211.476708100945
 10
157.7874454826538
 20
211.469257487866
 10
157.8200791679399
 20
211.4647871200186
 10
157.8547990248881
 20
211.4632969974028
 10
157.8547990248881
 20
211.4632969974028
 10
157.889667894098
 20
211.4647871200186
 10
157.9227486161688
 20
211.469257487866
 10
157.9540411911007
 20
211.476708100945
 10
157.9835456188936
 20
211.4871389592557
 10
157.9835456188936
 20
211.4871389592557
 10
158.011112887286
 20
211.4992089524437
 10
158.0365939840162
 20
211.5139611663402
 10
158.0599889090843
 20
211.531395600945
 10
158.0812976624903
 20
211.5515122562584
 10
158.0812976624903
 20
211.5515122562584
 10
158.100222219711
 20
211.5750561935881
 10
158.1164645562233
 20
211.6003882780568
 10
158.1300246720271
 20
211.6275085096644
 10
158.1409025671225
 20
211.656416888411
 10
158.1409025671225
 20
211.656416888411
 10
158.150290339602
 20
211.6884545246508
 10
158.1569958913732
 20
211.7225783325527
 10
158.1610192224358
 20
211.7587883121167
 10
158.1623603327901
 20
211.7970844633429
 10
158.1623603327901
 20
211.7970844633429
 10
158.1610192224358
 20
211.8352316023075
 10
158.1569958913732
 20
211.8709945450867
 10
158.150290339602
 20
211.9043732916807
 10
158.1409025671225
 20
211.9353678420895
 10
158.1409025671225
 20
211.9353678420895
 10
158.1300246720271
 20
211.9641272085745
 10
158.1164645562233
 20
211.9908004033974
 10
158.100222219711
 20
212.0153874265581
 10
158.0812976624903
 20
212.0378882780568
 10
158.0812976624903
 20
212.0378882780568
 10
158.0599889090843
 20
212.0580049333701
 10
158.0365939840162
 20
212.075439367975
 10
158.011112887286
 20
212.0901915818715
 10
157.9835456188936
 20
212.1022615750595
 10
157.9835456188936
 20
212.1022615750595
 10
157.9540411911007
 20
212.1116493475391
 10
157.9227486161688
 20
212.1183548993102
 10
157.889667894098
 20
212.1223782303728
 10
157.8547990248881
 20
212.1237193407271
 10
157.8547990248881
 20
212.1237193407271
 10
157.8199301556783
 20
212.1223782303728
 10
157.7868494336075
 20
212.1183548993102
 10
157.7555568586756
 20
212.1116493475391
 10
157.7260524308827
 20
212.1022615750595
 10
157.7260524308827
 20
212.1022615750595
 10
157.699677260583
 20
212.0901915818715
 10
157.6753882619454
 20
212.075439367975
 10
157.6531854349699
 20
212.0580049333701
 10
157.6330687796565
 20
212.0378882780568
 10
157.6330687796565
 20
212.0378882780568
 10
157.6151873082669
 20
212.0153874265581
 10
157.5996900330625
 20
211.9908004033974
 10
157.5865769540435
 20
211.9641272085745
 10
157.5758480712097
 20
211.9353678420895
 10
157.5758480712097
 20
211.9353678420895
 10
157.5675033845612
 20
211.9043732916807
 10
157.561542894098
 20
211.8709945450867
 10
157.55796659982
 20
211.8352316023075
 10
157.5567745017274
 20
211.7970844633429
 10
157.5567745017274
 20
211.7970844633429
  0
LWPOLYLINE
  5
1D2
330
1F
100
AcDbEntity
  8
ANNOTATION_TEXT
  6
CONTINUOUS
 62
     7
100
AcDbPolyline
 90
       30
 70
     1
 43
0.0
 10
160.2485319949154
 20
211.5324386867761
 10
160.2485319949154
 20
215.0181335096644
 10
159.8932867633078
 20
215.0181335096644
 10
158.9491450739345
 20
214.2861852807816
 10
159.1732595153514
 20
213.9976975423619
 10
159.2446736417137
 20
214.0561848550323
 10
159.3146721515911
 20
214.1136290818715
 10
159.3832550449835
 20
214.1700302228797
 10
159.4504223218909
 20
214.2253882780568
 10
159.5161739823132
 20
214.2797032474028
 10
159.5805100262505
 20
214.3329751309178
 10
159.6434304537028
 20
214.3852039286017
 10
159.7049352646702
 20
214.4363896404546
 10
159.7049352646702
 20
214.4363896404546
 10
159.7424863545884
 20
214.4679802399096
 10
159.778845346414
 20
214.5007629374573
 10
159.814012240147
 20
214.5347377330976
 10
159.8479870357873
 20
214.5699046268306
 10
159.8479870357873
 20
214.5699046268306
 10
159.8435166679399
 20
214.5000178761494
 10
159.8396423491388
 20
214.4286410028524
 10
159.8363640793841
 20
214.3557740069396
 10
159.8336818586756
 20
214.281416888411
 10
159.8315956870135
 20
214.2055696472666
 10
159.8301055643977
 20
214.1282322835063
 10
159.8292114908282
 20
214.0494047971303
 10
159.828913466305
 20
213.9690871881385
 10
159.828913466305
 20
213.9690871881385
 10
159.828913466305
 20
211.5324386867761
 10
160.2485319949154
 20
211.5324386867761
  0
LWPOLYLINE
  5
1D3
330
1F
100
AcDbEntity
  8
ANNOTATION_TEXT
  6
CONTINUOUS
 62
     7
100
AcDbPolyline
 90
       30
 70
     1
 43
0.0
 10
60.10075640879973
 20
107.0544489395522
 10
60.10075640879973
 20
110.5401437624405
 10
59.7455111771921
 20
110.5401437624405
 10
58.8013694878188
 20
109.8081955335577
 10
59.0254839292357
 20
109.519707795138
 10
59.0968980555981
 20
109.5781951078083
 10
59.16689656547548
 20
109.6356393346476
 10
59.23547945886785
 20
109.6920404756558
 10
59.30264673577521
 20
109.7473985308329
 10
59.36839839619755
 20
109.8017135001789
 10
59.43273444013488
 20
109.8549853836939
 10
59.4956548675872
 20
109.9072141813778
 10
59.5571596785545
 20
109.9583998932307
 10
59.5571596785545
 20
109.9583998932307
 10
59.59471076847275
 20
109.9899904926857
 10
59.63106976029837
 20
110.0227731902334
 10
59.66623665403134
 20
110.0567479858737
 10
59.70021144967166
 20
110.0919148796067
 10
59.70021144967166
 20
110.0919148796067
 10
59.69574108182425
 20
110.0220281289255
 10
59.69186676302316
 20
109.9506512556285
 10
59.68858849326839
 20
109.8777842597157
 10
59.68590627255995
 20
109.8034271411871
 10
59.68382010089782
 20
109.7275799000427
 10
59.68232997828202
 20
109.6502425362825
 10
59.68143590471254
 20
109.5714150499064
 10
59.68113788018938
 20
109.4910974409146
 10
59.68113788018938
 20
109.4910974409146
 10
59.68113788018938
 20
107.0544489395522
 10
60.10075640879973
 20
107.0544489395522
  0
LWPOLYLINE
  5
1D4
330
1F
100
AcDbEntity
  8
ANNOTATION_TEXT
  6
CONTINUOUS
 62
     7
100
AcDbPolyline
 90
       81
 70
     1
 43
0.0
 10
61.50981635430382
 20
109.4076505744296
 10
61.51100845239645
 20
109.3693544232034
 10
61.51458474667439
 20
109.3331444436394
 10
61.5205452371376
 20
109.2990206357375
 10
61.5288899237861
 20
109.2669829994977
 10
61.5288899237861
 20
109.2669829994977
 10
61.53976781888147
 20
109.2382236330127
 10
61.55332793468529
 20
109.2115504381898
 10
61.56957027119755
 20
109.1869634150291
 10
61.58849482841826
 20
109.1644625635304
 10
61.58849482841826
 20
109.1644625635304
 10
61.60861148373161
 20
109.143302822386
 10
61.63081431070708
 20
109.1251233264732
 10
61.65510330934468
 20
109.109924075792
 10
61.68147847964441
 20
109.0977050703424
 10
61.68147847964441
 20
109.0977050703424
 10
61.70993982160626
 20
109.0883172978628
 10
61.74048733523024
 20
109.0816117460917
 10
61.77312102051635
 20
109.0775884150291
 10
61.80784087746458
 20
109.0762473046748
 10
61.80784087746458
 20
109.0762473046748
 10
61.84270974667439
 20
109.0775884150291
 10
61.87579046874523
 20
109.0816117460917
 10
61.90708304367711
 20
109.0883172978628
 10
61.93658747147003
 20
109.0977050703424
 10
61.93658747147003
 20
109.0977050703424
 10
61.96415473986239
 20
109.109924075792
 10
61.98963583659264
 20
109.1251233264732
 10
62.01303076166076
 20
109.143302822386
 10
62.03433951506675
 20
109.1644625635304
 10
62.03433951506675
 20
109.1644625635304
 10
62.05326407228746
 20
109.1880065008601
 10
62.06950640879973
 20
109.2133385853288
 10
62.08306652460354
 20
109.2404588169364
 10
62.09394441969891
 20
109.269367195683
 10
62.09394441969891
 20
109.269367195683
 10
62.10333219217847
 20
109.3012558196612
 10
62.11003774394959
 20
109.3349325907784
 10
62.11406107501226
 20
109.3703975090345
 10
62.11540218536648
 20
109.4076505744296
 10
62.11540218536648
 20
109.4076505744296
 10
62.11406107501226
 20
109.4459467256558
 10
62.11003774394959
 20
109.4821567052198
 10
62.10333219217847
 20
109.5162805131217
 10
62.09394441969891
 20
109.5483181493615
 10
62.09394441969891
 20
109.5483181493615
 10
62.08321553686512
 20
109.5781206016776
 10
62.07010245784605
 20
109.6055388578083
 10
62.05460518264169
 20
109.6305729177539
 10
62.03672371125204
 20
109.6532227815141
 10
62.03672371125204
 20
109.6532227815141
 10
62.01541495784605
 20
109.6733394368274
 10
61.99202003277793
 20
109.6907738714323
 10
61.96653893604768
 20
109.7055260853288
 10
61.93897166765531
 20
109.7175960785168
 10
61.93897166765531
 20
109.7175960785168
 10
61.90931822760081
 20
109.7269838509964
 10
61.8775786158842
 20
109.7336894027675
 10
61.84375283250545
 20
109.7377127338302
 10
61.80784087746458
 20
109.7390538441844
 10
61.80784087746458
 20
109.7390538441844
 10
61.7719289224237
 20
109.7375637215686
 10
61.73810313904496
 20
109.7330933537212
 10
61.70636352732834
 20
109.7256427406421
 10
61.67671008727384
 20
109.7152118823315
 10
61.67671008727384
 20
109.7152118823315
 10
61.65033491697411
 20
109.7031418891435
 10
61.62604591833651
 20
109.688389675247
 10
61.60384309136104
 20
109.6709552406421
 10
61.58372643604768
 20
109.6508385853288
 10
61.58372643604768
 20
109.6508385853288
 10
61.56584496465803
 20
109.6281887215686
 10
61.55034768945368
 20
109.6031546616231
 10
61.5372346104346
 20
109.5757364054923
 10
61.52650572760081
 20
109.5459339531762
 10
61.52650572760081
 20
109.5459339531762
 10
61.51920412678338
 20
109.5149394027675
 10
61.51398869762806
 20
109.4815606561735
 10
61.51085944013488
 20
109.4457977133942
 10
61.50981635430382
 20
109.4076505744296
 10
61.50981635430382
 20
109.4076505744296
  0
LWPOLYLINE
  5
1D5
330
1F
100
AcDbEntity
  8
ANNOTATION_TEXT
  6
CONTINUOUS
 62
     7
100
AcDbPolyline
 90
       81
 70
     1
 43
0.0
 10
61.50981635430382
 20
107.319094716119
 10
61.51100845239645
 20
107.2807985648928
 10
61.51458474667439
 20
107.2445885853288
 10
61.5205452371376
 20
107.2104647774269
 10
61.5288899237861
 20
107.1784271411871
 10
61.5288899237861
 20
107.1784271411871
 10
61.53976781888147
 20
107.148624688871
 10
61.55332793468529
 20
107.1212064327402
 10
61.56957027119755
 20
107.0961723727947
 10
61.58849482841826
 20
107.0735225090345
 10
61.58849482841826
 20
107.0735225090345
 10
61.60861148373161
 20
107.0534058537212
 10
61.63081431070708
 20
107.0359714191163
 10
61.65510330934468
 20
107.0212192052198
 10
61.68147847964441
 20
107.0091492120318
 10
61.68147847964441
 20
107.0091492120318
 10
61.70993982160626
 20
106.9987183537212
 10
61.74048733523024
 20
106.9912677406421
 10
61.77312102051635
 20
106.9867973727947
 10
61.80784087746458
 20
106.9853072501789
 10
61.80784087746458
 20
106.9853072501789
 10
61.84270974667439
 20
106.9867973727947
 10
61.87579046874523
 20
106.9912677406421
 10
61.90708304367711
 20
106.9987183537212
 10
61.93658747147003
 20
107.0091492120318
 10
61.93658747147003
 20
107.0091492120318
 10
61.96415473986239
 20
107.0212192052198
 10
61.98963583659264
 20
107.0359714191163
 10
62.01303076166076
 20
107.0534058537212
 10
62.03433951506675
 20
107.0735225090345
 10
62.03433951506675
 20
107.0735225090345
 10
62.05326407228746
 20
107.0970664463642
 10
62.06950640879973
 20
107.1223985308329
 10
62.08306652460354
 20
107.1495187624405
 10
62.09394441969891
 20
107.1784271411871
 10
62.09394441969891
 20
107.1784271411871
 10
62.10333219217847
 20
107.2104647774269
 10
62.11003774394959
 20
107.2445885853288
 10
62.11406107501226
 20
107.2807985648928
 10
62.11540218536648
 20
107.319094716119
 10
62.11540218536648
 20
107.319094716119
 10
62.11406107501226
 20
107.3572418550836
 10
62.11003774394959
 20
107.3930047978628
 10
62.10333219217847
 20
107.4263835444569
 10
62.09394441969891
 20
107.4573780948656
 10
62.09394441969891
 20
107.4573780948656
 10
62.08306652460354
 20
107.4861374613506
 10
62.06950640879973
 20
107.5128106561735
 10
62.05326407228746
 20
107.5373976793342
 10
62.03433951506675
 20
107.5598985308329
 10
62.03433951506675
 20
107.5598985308329
 10
62.01303076166076
 20
107.5800151861462
 10
61.98963583659264
 20
107.5974496207511
 10
61.96415473986239
 20
107.6122018346476
 10
61.93658747147003
 20
107.6242718278356
 10
61.93658747147003
 20
107.6242718278356
 10
61.90708304367711
 20
107.6336596003152
 10
61.87579046874523
 20
107.6403651520863
 10
61.84270974667439
 20
107.6443884831489
 10
61.80784087746458
 20
107.6457295935032
 10
61.80784087746458
 20
107.6457295935032
 10
61.77297200825477
 20
107.6443884831489
 10
61.73989128618392
 20
107.6403651520863
 10
61.70859871125204
 20
107.6336596003152
 10
61.67909428345913
 20
107.6242718278356
 10
61.67909428345913
 20
107.6242718278356
 10
61.6527191131594
 20
107.6122018346476
 10
61.6284301145218
 20
107.5974496207511
 10
61.60622728754632
 20
107.5800151861462
 10
61.58611063223297
 20
107.5598985308329
 10
61.58611063223297
 20
107.5598985308329
 10
61.56822916084332
 20
107.5373976793342
 10
61.55273188563896
 20
107.5128106561735
 10
61.53961880661989
 20
107.4861374613506
 10
61.5288899237861
 20
107.4573780948656
 10
61.5288899237861
 20
107.4573780948656
 10
61.5205452371376
 20
107.4263835444569
 10
61.51458474667439
 20
107.3930047978628
 10
61.51100845239645
 20
107.3572418550836
 10
61.50981635430382
 20
107.319094716119
 10
61.50981635430382
 20
107.319094716119
  0
LWPOLYLINE
  5
1D6
330
1F
100
AcDbEntity
  8
ANNOTATION_TEXT
  6
CONTINUOUS
 62
     7
100
AcDbPolyline
 90
       30
 70
     1
 43
0.0
 10
64.20157384749183
 20
107.0544489395522
 10
64.20157384749183
 20
110.5401437624405
 10
63.8463286158842
 20
110.5401437624405
 10
62.9021869265109
 20
109.8081955335577
 10
63.12630136792779
 20
109.519707795138
 10
63.19771549429019
 20
109.5781951078083
 10
63.26771400416757
 20
109.6356393346476
 10
63.33629689755995
 20
109.6920404756558
 10
63.4034641744673
 20
109.7473985308329
 10
63.46921583488965
 20
109.8017135001789
 10
63.53355187882698
 20
109.8549853836939
 10
63.5964723062793
 20
109.9072141813778
 10
63.6579771172466
 20
109.9583998932307
 10
63.6579771172466
 20
109.9583998932307
 10
63.69552820716485
 20
109.9899904926857
 10
63.73188719899046
 20
110.0227731902334
 10
63.76705409272343
 20
110.0567479858737
 10
63.80102888836376
 20
110.0919148796067
 10
63.80102888836376
 20
110.0919148796067
 10
63.79655852051635
 20
110.0220281289255
 10
63.79268420171526
 20
109.9506512556285
 10
63.78940593196049
 20
109.8777842597157
 10
63.78672371125204
 20
109.8034271411871
 10
63.78463753958992
 20
109.7275799000427
 10
63.78314741697412
 20
109.6502425362825
 10
63.78225334340463
 20
109.5714150499064
 10
63.78195531888147
 20
109.4910974409146
 10
63.78195531888147
 20
109.4910974409146
 10
63.78195531888147
 20
107.0544489395522
 10
64.20157384749183
 20
107.0544489395522
  0
LWPOLYLINE
  5
1D7
330
1F
100
AcDbEntity
  8
ANNOTATION_TEXT
  6
CONTINUOUS
 62
     7
100
AcDbPolyline
 90
       30
 70
     1
 43
0.0
 10
151.658060339984
 20
86.75786623419545
 10
151.658060339984
 20
90.24356105708372
 10
151.3028151083763
 20
90.24356105708372
 10
150.358673419003
 20
89.5116128282009
 10
150.5827878604199
 20
89.22312508978128
 10
150.6542019867823
 20
89.28161240245157
 10
150.7242004966597
 20
89.33905662929081
 10
150.7927833900521
 20
89.39545777029899
 10
150.8599506669594
 20
89.4508158254761
 10
150.9257023273818
 20
89.50513079482215
 10
150.9900383713191
 20
89.55840267833713
 10
151.0529587987714
 20
89.61063147602106
 10
151.1144636097387
 20
89.66181718787392
 10
151.1144636097387
 20
89.66181718787392
 10
151.152014699657
 20
89.69340778732897
 10
151.1883736914826
 20
89.72619048487664
 10
151.2235405852155
 20
89.76016528051697
 10
151.2575153808559
 20
89.79533217424995
 10
151.2575153808559
 20
89.79533217424995
 10
151.2530450130085
 20
89.72544542356874
 10
151.2491706942074
 20
89.65406855027175
 10
151.2458924244526
 20
89.58120155435894
 10
151.2432102037442
 20
89.50684443583033
 10
151.241124032082
 20
89.43099719468592
 10
151.2396339094662
 20
89.3536598309257
 10
151.2387398358968
 20
89.27483234454967
 10
151.2384418113736
 20
89.19451473555785
 10
151.2384418113736
 20
89.19451473555785
 10
151.2384418113736
 20
86.75786623419545
 10
151.658060339984
 20
86.75786623419545
  0
LWPOLYLINE
  5
1D8
330
1F
100
AcDbEntity
  8
ANNOTATION_TEXT
  6
CONTINUOUS
 62
     7
100
AcDbPolyline
 90
       81
 70
     1
 43
0.0
 10
153.067120285488
 20
89.11106786907283
 10
153.0683123835807
 20
89.07277171784668
 10
153.0718886778586
 20
89.03656173828264
 10
153.0778491683218
 20
89.00243793038074
 10
153.0861938549703
 20
88.97040029414094
 10
153.0861938549703
 20
88.97040029414094
 10
153.0970717500657
 20
88.94164092765594
 10
153.1106318658695
 20
88.91496773283305
 10
153.1268742023818
 20
88.89038070967229
 10
153.1457987596025
 20
88.86787985817365
 10
153.1457987596025
 20
88.86787985817365
 10
153.1659154149158
 20
88.84672011702924
 10
153.1881182418913
 20
88.82854062111643
 10
153.2124072405289
 20
88.81334137043523
 10
153.2387824108287
 20
88.80112236498564
 10
153.2387824108287
 20
88.80112236498564
 10
153.2672437527905
 20
88.79173459250607
 10
153.2977912664145
 20
88.78502904073495
 10
153.3304249517006
 20
88.78100570967229
 10
153.3651448086488
 20
88.77966459931807
 10
153.3651448086488
 20
88.77966459931807
 10
153.4000136778586
 20
88.78100570967229
 10
153.4330943999295
 20
88.78502904073495
 10
153.4643869748614
 20
88.79173459250607
 10
153.4938914026543
 20
88.80112236498564
 10
153.4938914026543
 20
88.80112236498564
 10
153.5214586710466
 20
88.81334137043523
 10
153.5469397677769
 20
88.82854062111643
 10
153.570334692845
 20
88.84672011702924
 10
153.591643446251
 20
88.86787985817365
 10
153.591643446251
 20
88.86787985817365
 10
153.6105680034717
 20
88.89142379550334
 10
153.626810339984
 20
88.91675587997202
 10
153.6403704557878
 20
88.94387611157964
 10
153.6512483508832
 20
88.97278449032623
 10
153.6512483508832
 20
88.97278449032623
 10
153.6606361233627
 20
89.00467311430444
 10
153.6673416751338
 20
89.03834988542161
 10
153.6713650061965
 20
89.07381480367773
 10
153.6727061165507
 20
89.11106786907283
 10
153.6727061165507
 20
89.11106786907283
 10
153.6713650061965
 20
89.14936402029899
 10
153.6673416751338
 20
89.18557399986302
 10
153.6606361233627
 20
89.21969780776493
 10
153.6512483508832
 20
89.25173544400471
 10
153.6512483508832
 20
89.25173544400471
 10
153.6405194680493
 20
89.28153789632078
 10
153.6274063890303
 20
89.30895615245157
 10
153.6119091138259
 20
89.33399021239708
 10
153.5940276424363
 20
89.3566400761573
 10
153.5940276424363
 20
89.3566400761573
 10
153.5727188890303
 20
89.37675673147065
 10
153.5493239639622
 20
89.39419116607556
 10
153.5238428672319
 20
89.40894337997202
 10
153.4962755988396
 20
89.42101337316002
 10
153.4962755988396
 20
89.42101337316002
 10
153.466622158785
 20
89.43040114563959
 10
153.4348825470684
 20
89.43710669741071
 10
153.4010567636897
 20
89.44113002847338
 10
153.3651448086488
 20
89.4424711388276
 10
153.3651448086488
 20
89.4424711388276
 10
153.3292328536079
 20
89.4409810162118
 10
153.2954070702292
 20
89.43651064836439
 10
153.2636674585126
 20
89.42906003528536
 10
153.2340140184581
 20
89.41862917697473
 10
153.2340140184581
 20
89.41862917697473
 10
153.2076388481584
 20
89.40655918378673
 10
153.1833498495207
 20
89.39180696989027
 10
153.1611470225453
 20
89.37437253528536
 10
153.1410303672319
 20
89.35425587997202
 10
153.1410303672319
 20
89.35425587997202
 10
153.1231488958423
 20
89.3316060162118
 10
153.1076516206379
 20
89.3065719562663
 10
153.0945385416188
 20
89.2791537001355
 10
153.083809658785
 20
89.24935124781942
 10
153.083809658785
 20
89.24935124781942
 10
153.0765080579676
 20
89.21835669741071
 10
153.0712926288123
 20
89.1849779508167
 10
153.0681633713191
 20
89.14921500803742
 10
153.067120285488
 20
89.11106786907283
 10
153.067120285488
 20
89.11106786907283
  0
LWPOLYLINE
  5
1D9
330
1F
100
AcDbEntity
  8
ANNOTATION_TEXT
  6
CONTINUOUS
 62
     7
100
AcDbPolyline
 90
       81
 70
     1
 43
0.0
 10
153.067120285488
 20
87.0225120107622
 10
153.0683123835807
 20
86.98421585953605
 10
153.0718886778586
 20
86.94800587997202
 10
153.0778491683218
 20
86.91388207207011
 10
153.0861938549703
 20
86.88184443583033
 10
153.0861938549703
 20
86.88184443583033
 10
153.0970717500657
 20
86.85204198351425
 10
153.1106318658695
 20
86.82462372738345
 10
153.1268742023818
 20
86.79958966743796
 10
153.1457987596025
 20
86.77693980367773
 10
153.1457987596025
 20
86.77693980367773
 10
153.1659154149158
 20
86.75682314836439
 10
153.1881182418913
 20
86.73938871375948
 10
153.2124072405289
 20
86.72463649986302
 10
153.2387824108287
 20
86.71256650667502
 10
153.2387824108287
 20
86.71256650667502
 10
153.2672437527905
 20
86.70213564836439
 10
153.2977912664145
 20
86.69468503528536
 10
153.3304249517006
 20
86.69021466743796
 10
153.3651448086488
 20
86.68872454482215
 10
153.3651448086488
 20
86.68872454482215
 10
153.4000136778586
 20
86.69021466743796
 10
153.4330943999295
 20
86.69468503528536
 10
153.4643869748614
 20
86.70213564836439
 10
153.4938914026543
 20
86.71256650667502
 10
153.4938914026543
 20
86.71256650667502
 10
153.5214586710466
 20
86.72463649986302
 10
153.5469397677769
 20
86.73938871375948
 10
153.570334692845
 20
86.75682314836439
 10
153.591643446251
 20
86.77693980367773
 10
153.591643446251
 20
86.77693980367773
 10
153.6105680034717
 20
86.80048374100744
 10
153.626810339984
 20
86.8258158254761
 10
153.6403704557878
 20
86.85293605708372
 10
153.6512483508832
 20
86.88184443583033
 10
153.6512483508832
 20
86.88184443583033
 10
153.6606361233627
 20
86.91388207207011
 10
153.6673416751338
 20
86.94800587997202
 10
153.6713650061965
 20
86.98421585953605
 10
153.6727061165507
 20
87.0225120107622
 10
153.6727061165507
 20
87.0225120107622
 10
153.6713650061965
 20
87.06065914972679
 10
153.6673416751338
 20
87.09642209250607
 10
153.6606361233627
 20
87.12980083910008
 10
153.6512483508832
 20
87.16079538950879
 10
153.6512483508832
 20
87.16079538950879
 10
153.6403704557878
 20
87.18955475599381
 10
153.626810339984
 20
87.2162279508167
 10
153.6105680034717
 20
87.24081497397746
 10
153.591643446251
 20
87.2633158254761
 10
153.591643446251
 20
87.2633158254761
 10
153.570334692845
 20
87.28343248078946
 10
153.5469397677769
 20
87.30086691539435
 10
153.5214586710466
 20
87.31561912929081
 10
153.4938914026543
 20
87.32768912247883
 10
153.4938914026543
 20
87.32768912247883
 10
153.4643869748614
 20
87.33707689495839
 10
153.4330943999295
 20
87.3437824467295
 10
153.4000136778586
 20
87.34780577779217
 10
153.3651448086488
 20
87.34914688814641
 10
153.3651448086488
 20
87.34914688814641
 10
153.330275939439
 20
87.34780577779217
 10
153.2971952173682
 20
87.3437824467295
 10
153.2659026424363
 20
87.33707689495839
 10
153.2363982146434
 20
87.32768912247883
 10
153.2363982146434
 20
87.32768912247883
 10
153.2100230443436
 20
87.31561912929081
 10
153.185734045706
 20
87.30086691539435
 10
153.1635312187306
 20
87.28343248078946
 10
153.1434145634172
 20
87.2633158254761
 10
153.1434145634172
 20
87.2633158254761
 10
153.1255330920276
 20
87.24081497397746
 10
153.1100358168232
 20
87.2162279508167
 10
153.0969227378041
 20
87.18955475599381
 10
153.0861938549703
 20
87.16079538950879
 10
153.0861938549703
 20
87.16079538950879
 10
153.0778491683218
 20
87.12980083910008
 10
153.0718886778586
 20
87.09642209250607
 10
153.0683123835807
 20
87.06065914972679
 10
153.067120285488
 20
87.0225120107622
 10
153.067120285488
 20
87.0225120107622
  0
LWPOLYLINE
  5
1DA
330
1F
100
AcDbEntity
  8
ANNOTATION_TEXT
  6
CONTINUOUS
 62
     7
100
AcDbPolyline
 90
       30
 70
     1
 43
0.0
 10
155.7588777786761
 20
86.75786623419545
 10
155.7588777786761
 20
90.24356105708372
 10
155.4036325470684
 20
90.24356105708372
 10
154.4594908576951
 20
89.5116128282009
 10
154.683605299112
 20
89.22312508978128
 10
154.7550194254744
 20
89.28161240245157
 10
154.8250179353518
 20
89.33905662929081
 10
154.8936008287442
 20
89.39545777029899
 10
154.9607681056515
 20
89.4508158254761
 10
155.0265197660739
 20
89.50513079482215
 10
155.0908558100112
 20
89.55840267833713
 10
155.1537762374635
 20
89.61063147602106
 10
155.2152810484308
 20
89.66181718787392
 10
155.2152810484308
 20
89.66181718787392
 10
155.2528321383491
 20
89.69340778732897
 10
155.2891911301747
 20
89.72619048487664
 10
155.3243580239076
 20
89.76016528051697
 10
155.358332819548
 20
89.79533217424995
 10
155.358332819548
 20
89.79533217424995
 10
155.3538624517006
 20
89.72544542356874
 10
155.3499881328995
 20
89.65406855027175
 10
155.3467098631447
 20
89.58120155435894
 10
155.3440276424363
 20
89.50684443583033
 10
155.3419414707741
 20
89.43099719468592
 10
155.3404513481584
 20
89.3536598309257
 10
155.3395572745889
 20
89.27483234454967
 10
155.3392592500657
 20
89.19451473555785
 10
155.3392592500657
 20
89.19451473555785
 10
155.3392592500657
 20
86.75786623419545
 10
155.7588777786761
 20
86.75786623419545
  0
LWPOLYLINE
  5
1DB
330
1F
100
AcDbEntity
  8
ANNOTATION_TEXT
  6
CONTINUOUS
 62
     7
100
AcDbPolyline
 90
       30
 70
     1
 43
0.0
 10
59.66384186855174
 20
22.03470912223811
 10
59.66384186855174
 20
25.5204039451264
 10
59.30859663694411
 20
25.5204039451264
 10
58.36445494757081
 20
24.78845571624356
 10
58.58856938898771
 20
24.49996797782394
 10
58.65998351535011
 20
24.55845529049424
 10
58.72998202522749
 20
24.61589951733348
 10
58.79856491861986
 20
24.67230065834165
 10
58.86573219552722
 20
24.72765871351877
 10
58.93148385594956
 20
24.78197368286482
 10
58.99581989988689
 20
24.8352455663798
 10
59.05874032733921
 20
24.88747436406373
 10
59.12024513830651
 20
24.93866007591659
 10
59.12024513830651
 20
24.93866007591659
 10
59.15779622822476
 20
24.97025067537163
 10
59.19415522005038
 20
25.00303337291931
 10
59.22932211378335
 20
25.03700816855964
 10
59.26329690942367
 20
25.07217506229261
 10
59.26329690942367
 20
25.07217506229261
 10
59.25882654157626
 20
25.00228831161141
 10
59.25495222277517
 20
24.93091143831441
 10
59.2516739530204
 20
24.8580444424016
 10
59.24899173231196
 20
24.78368732387299
 10
59.24690556064983
 20
24.70784008272858
 10
59.24541543803403
 20
24.63050271896836
 10
59.24452136446455
 20
24.55167523259234
 10
59.24422333994139
 20
24.47135762360051
 10
59.24422333994139
 20
24.47135762360051
 10
59.24422333994139
 20
22.03470912223811
 10
59.66384186855174
 20
22.03470912223811
  0
LWPOLYLINE
  5
1DC
330
1F
100
AcDbEntity
  8
ANNOTATION_TEXT
  6
CONTINUOUS
 62
     7
100
AcDbPolyline
 90
       81
 70
     1
 43
0.0
 10
61.07290181405583
 20
24.3879107571155
 10
61.07409391214846
 20
24.34961460588934
 10
61.0776702064264
 20
24.3134046263253
 10
61.08363069688961
 20
24.2792808184234
 10
61.09197538353811
 20
24.24724318218362
 10
61.09197538353811
 20
24.24724318218362
 10
61.10285327863348
 20
24.2184838156986
 10
61.11641339443729
 20
24.19181062087571
 10
61.13265573094956
 20
24.16722359771495
 10
61.15158028817027
 20
24.14472274621631
 10
61.15158028817027
 20
24.14472274621631
 10
61.17169694348362
 20
24.1235630050719
 10
61.19389977045909
 20
24.10538350915909
 10
61.21818876909669
 20
24.09018425847789
 10
61.24456393939642
 20
24.0779652530283
 10
61.24456393939642
 20
24.0779652530283
 10
61.27302528135827
 20
24.06857748054874
 10
61.30357279498225
 20
24.06187192877762
 10
61.33620648026836
 20
24.05784859771495
 10
61.37092633721659
 20
24.05650748736073
 10
61.37092633721659
 20
24.05650748736073
 10
61.4057952064264
 20
24.05784859771495
 10
61.43887592849724
 20
24.06187192877762
 10
61.47016850342912
 20
24.06857748054874
 10
61.49967293122204
 20
24.0779652530283
 10
61.49967293122204
 20
24.0779652530283
 10
61.5272401996144
 20
24.09018425847789
 10
61.55272129634465
 20
24.10538350915909
 10
61.57611622141278
 20
24.1235630050719
 10
61.59742497481876
 20
24.14472274621631
 10
61.59742497481876
 20
24.14472274621631
 10
61.61634953203947
 20
24.16826668354602
 10
61.63259186855174
 20
24.19359876801468
 10
61.64615198435555
 20
24.22071899962231
 10
61.65702987945092
 20
24.2496273783689
 10
61.65702987945092
 20
24.2496273783689
 10
61.66641765193048
 20
24.2815160023471
 10
61.6731232037016
 20
24.31519277346427
 10
61.67714653476427
 20
24.3506576917204
 10
61.67848764511849
 20
24.3879107571155
 10
61.67848764511849
 20
24.3879107571155
 10
61.67714653476427
 20
24.42620690834165
 10
61.6731232037016
 20
24.46241688790569
 10
61.66641765193048
 20
24.4965406958076
 10
61.65702987945092
 20
24.52857833204738
 10
61.65702987945092
 20
24.52857833204738
 10
61.64630099661713
 20
24.55838078436345
 10
61.63318791759806
 20
24.58579904049424
 10
61.6176906423937
 20
24.61083310043975
 10
61.59980917100405
 20
24.63348296419997
 10
61.59980917100405
 20
24.63348296419997
 10
61.57850041759806
 20
24.65359961951332
 10
61.55510549252994
 20
24.67103405411822
 10
61.52962439579969
 20
24.68578626801468
 10
61.50205712740732
 20
24.69785626120269
 10
61.50205712740732
 20
24.69785626120269
 10
61.47240368735282
 20
24.70724403368225
 10
61.44066407563621
 20
24.71394958545337
 10
61.40683829225746
 20
24.71797291651604
 10
61.37092633721659
 20
24.71931402687026
 10
61.37092633721659
 20
24.71931402687026
 10
61.33501438217571
 20
24.71782390425446
 10
61.30118859879697
 20
24.71335353640705
 10
61.26944898708035
 20
24.70590292332803
 10
61.23979554702585
 20
24.69547206501741
 10
61.23979554702585
 20
24.69547206501741
 10
61.21342037672612
 20
24.68340207182939
 10
61.18913137808852
 20
24.66864985793293
 10
61.16692855111305
 20
24.65121542332803
 10
61.14681189579969
 20
24.63109876801468
 10
61.14681189579969
 20
24.63109876801468
 10
61.12893042441004
 20
24.60844890425446
 10
61.11343314920569
 20
24.58341484430896
 10
61.10032007018661
 20
24.55599658817817
 10
61.08959118735282
 20
24.52619413586209
 10
61.08959118735282
 20
24.52619413586209
 10
61.08228958653539
 20
24.49519958545337
 10
61.07707415738007
 20
24.46182083885937
 10
61.07394489988689
 20
24.42605789608007
 10
61.07290181405583
 20
24.3879107571155
 10
61.07290181405583
 20
24.3879107571155
  0
LWPOLYLINE
  5
1DD
330
1F
100
AcDbEntity
  8
ANNOTATION_TEXT
  6
CONTINUOUS
 62
     7
100
AcDbPolyline
 90
       81
 70
     1
 43
0.0
 10
61.07290181405583
 20
22.29935489880487
 10
61.07409391214846
 20
22.26105874757871
 10
61.0776702064264
 20
22.22484876801468
 10
61.08363069688961
 20
22.19072496011277
 10
61.09197538353811
 20
22.15868732387299
 10
61.09197538353811
 20
22.15868732387299
 10
61.10285327863348
 20
22.12888487155691
 10
61.11641339443729
 20
22.10146661542612
 10
61.13265573094956
 20
22.07643255548062
 10
61.15158028817027
 20
22.0537826917204
 10
61.15158028817027
 20
22.0537826917204
 10
61.17169694348362
 20
22.03366603640705
 10
61.19389977045909
 20
22.01623160180214
 10
61.21818876909669
 20
22.00147938790569
 10
61.24456393939642
 20
21.98940939471768
 10
61.24456393939642
 20
21.98940939471768
 10
61.27302528135827
 20
21.97897853640705
 10
61.30357279498225
 20
21.97152792332803
 10
61.33620648026836
 20
21.96705755548062
 10
61.37092633721659
 20
21.96556743286482
 10
61.37092633721659
 20
21.96556743286482
 10
61.4057952064264
 20
21.96705755548062
 10
61.43887592849724
 20
21.97152792332803
 10
61.47016850342912
 20
21.97897853640705
 10
61.49967293122204
 20
21.98940939471768
 10
61.49967293122204
 20
21.98940939471768
 10
61.5272401996144
 20
22.00147938790569
 10
61.55272129634465
 20
22.01623160180214
 10
61.57611622141278
 20
22.03366603640705
 10
61.59742497481876
 20
22.0537826917204
 10
61.59742497481876
 20
22.0537826917204
 10
61.61634953203947
 20
22.0773266290501
 10
61.63259186855174
 20
22.10265871351877
 10
61.64615198435555
 20
22.1297789451264
 10
61.65702987945092
 20
22.15868732387299
 10
61.65702987945092
 20
22.15868732387299
 10
61.66641765193048
 20
22.19072496011277
 10
61.6731232037016
 20
22.22484876801468
 10
61.67714653476427
 20
22.26105874757871
 10
61.67848764511849
 20
22.29935489880487
 10
61.67848764511849
 20
22.29935489880487
 10
61.67714653476427
 20
22.33750203776945
 10
61.6731232037016
 20
22.37326498054874
 10
61.66641765193048
 20
22.40664372714274
 10
61.65702987945092
 20
22.43763827755146
 10
61.65702987945092
 20
22.43763827755146
 10
61.64615198435555
 20
22.46639764403648
 10
61.63259186855174
 20
22.49307083885937
 10
61.61634953203947
 20
22.51765786202013
 10
61.59742497481876
 20
22.54015871351877
 10
61.59742497481876
 20
22.54015871351877
 10
61.57611622141278
 20
22.56027536883212
 10
61.55272129634465
 20
22.57770980343702
 10
61.5272401996144
 20
22.59246201733348
 10
61.49967293122204
 20
22.60453201052149
 10
61.49967293122204
 20
22.60453201052149
 10
61.47016850342912
 20
22.61391978300106
 10
61.43887592849724
 20
22.62062533477217
 10
61.4057952064264
 20
22.62464866583484
 10
61.37092633721659
 20
22.62598977618907
 10
61.37092633721659
 20
22.62598977618907
 10
61.33605746800678
 20
22.62464866583484
 10
61.30297674593593
 20
22.62062533477217
 10
61.27168417100405
 20
22.61391978300106
 10
61.24217974321114
 20
22.60453201052149
 10
61.24217974321114
 20
22.60453201052149
 10
61.21580457291141
 20
22.59246201733348
 10
61.19151557427381
 20
22.57770980343702
 10
61.16931274729833
 20
22.56027536883212
 10
61.14919609198498
 20
22.54015871351877
 10
61.14919609198498
 20
22.54015871351877
 10
61.13131462059533
 20
22.51765786202013
 10
61.11581734539097
 20
22.49307083885937
 10
61.1027042663719
 20
22.46639764403648
 10
61.09197538353811
 20
22.43763827755146
 10
61.09197538353811
 20
22.43763827755146
 10
61.08363069688961
 20
22.40664372714274
 10
61.0776702064264
 20
22.37326498054874
 10
61.07409391214846
 20
22.33750203776945
 10
61.07290181405583
 20
22.29935489880487
 10
61.07290181405583
 20
22.29935489880487
  0
LWPOLYLINE
  5
1DE
330
1F
100
AcDbEntity
  8
ANNOTATION_TEXT
  6
CONTINUOUS
 62
     7
100
AcDbPolyline
 90
       30
 70
     1
 43
0.0
 10
63.76465930724384
 20
22.03470912223811
 10
63.76465930724384
 20
25.5204039451264
 10
63.40941407563621
 20
25.5204039451264
 10
62.46527238626291
 20
24.78845571624356
 10
62.6893868276798
 20
24.49996797782394
 10
62.7608009540422
 20
24.55845529049424
 10
62.83079946391958
 20
24.61589951733348
 10
62.89938235731196
 20
24.67230065834165
 10
62.96654963421931
 20
24.72765871351877
 10
63.03230129464166
 20
24.78197368286482
 10
63.09663733857899
 20
24.8352455663798
 10
63.15955776603131
 20
24.88747436406373
 10
63.22106257699861
 20
24.93866007591659
 10
63.22106257699861
 20
24.93866007591659
 10
63.25861366691686
 20
24.97025067537163
 10
63.29497265874247
 20
25.00303337291931
 10
63.33013955247544
 20
25.03700816855964
 10
63.36411434811577
 20
25.07217506229261
 10
63.36411434811577
 20
25.07217506229261
 10
63.35964398026836
 20
25.00228831161141
 10
63.35576966146727
 20
24.93091143831441
 10
63.3524913917125
 20
24.8580444424016
 10
63.34980917100405
 20
24.78368732387299
 10
63.34772299934193
 20
24.70784008272858
 10
63.34623287672613
 20
24.63050271896836
 10
63.34533880315664
 20
24.55167523259234
 10
63.34504077863348
 20
24.47135762360051
 10
63.34504077863348
 20
24.47135762360051
 10
63.34504077863348
 20
22.03470912223811
 10
63.76465930724384
 20
22.03470912223811
  0
ENDSEC
  0
SECTION
  2
OBJECTS
  0
DICTIONARY
  5
C
330
0
100
AcDbDictionary
  3
ACAD_GROUP
350
D
  3
ACAD_LAYOUT
350
1A
  3
ACAD_MATERIAL
350
43
  3
ACAD_MLEADERSTYLE
350
241
  3
ACAD_MLINESTYLE
350
17
  3
ACAD_PLOTSETTINGS
350
19
  3
ACAD_SCALELIST
350
47
  3
ACAD_VISUALSTYLE
350
2A
  3
ACDBHEADERROUNDTRIPXREC
350
220
  3
ACDBVARIABLEDICTIONARY
350
6C
  3
ONSHAPE_DATA
350
1E1
  0
DICTIONARY
  5
7F
330
7E
100
AcDbDictionary
280
     1
  3
OS_DIM_DISPLAY_FLAG_DATA
360
82
  0
DICTIONARY
  5
96
330
95
100
AcDbDictionary
280
     1
  3
OS_DIM_DISPLAY_FLAG_DATA
360
99
  0
DICTIONARY
  5
A7
330
A6
100
AcDbDictionary
280
     1
  3
OS_DIM_DISPLAY_FLAG_DATA
360
AA
  0
DICTIONARY
  5
B8
330
B7
100
AcDbDictionary
280
     1
  3
OS_DIM_DISPLAY_FLAG_DATA
360
BA
  0
DICTIONARY
  5
C9
330
C8
100
AcDbDictionary
280
     1
  3
OS_DIM_DISPLAY_FLAG_DATA
360
CC
  0
DICTIONARY
  5
DA
330
D9
100
AcDbDictionary
280
     1
  3
OS_DIM_DISPLAY_FLAG_DATA
360
DD
  0
DICTIONARY
  5
EB
330
EA
100
AcDbDictionary
280
     1
  3
OS_DIM_DISPLAY_FLAG_DATA
360
EE
  0
DICTIONARY
  5
FC
330
FB
100
AcDbDictionary
280
     1
  3
OS_DIM_DISPLAY_FLAG_DATA
360
FF
  0
DICTIONARY
  5
114
330
113
100
AcDbDictionary
280
     1
  3
OS_DIM_DISPLAY_FLAG_DATA
360
116
  0
DICTIONARY
  5
D
102
{ACAD_REACTORS
330
C
102
}
330
C
100
AcDbDictionary
  0
DICTIONARY
  5
1A
102
{ACAD_REACTORS
330
C
102
}
330
C
100
AcDbDictionary
  0
DICTIONARY
  5
43
102
{ACAD_REACTORS
330
C
102
}
330
C
100
AcDbDictionary
  3
BYBLOCK
350
45
  3
BYLAYER
350
44
  3
GLOBAL
350
46
  0
DICTIONARY
  5
241
102
{ACAD_REACTORS
330
C
102
}
330
C
100
AcDbDictionary
  0
DICTIONARY
  5
17
102
{ACAD_REACTORS
330
C
102
}
330
C
100
AcDbDictionary
  3
STANDARD
350
18
  0
DICTIONARY
  5
19
102
{ACAD_REACTORS
330
C
102
}
330
C
100
AcDbDictionary
  0
DICTIONARY
  5
47
102
{ACAD_REACTORS
330
C
102
}
330
C
100
AcDbDictionary
  3
A0
350
48
  3
A1
350
49
  3
A2
350
4A
  3
A3
350
4B
  3
A4
350
4C
  3
A5
350
4D
  3
A6
350
4E
  3
A7
350
4F
  3
A8
350
50
  3
A9
350
51
  3
B0
350
52
  3
B1
350
53
  3
B2
350
54
  3
B3
350
55
  3
B4
350
56
  3
B5
350
57
  3
B6
350
58
  3
B7
350
59
  3
B8
350
5A
  3
B9
350
5B
  3
C0
350
5C
  3
C1
350
5D
  3
C2
350
5E
  3
C3
350
5F
  3
C4
350
60
  3
C5
350
61
  3
C6
350
62
  3
C7
350
63
  3
C8
350
64
  3
C9
350
65
  3
D0
350
66
  3
D1
350
67
  3
D2
350
68
  0
DICTIONARY
  5
2A
102
{ACAD_REACTORS
330
C
102
}
330
C
100
AcDbDictionary
  3
2DWIREFRAME
350
2F
  3
BASIC
350
32
  3
BRIGHTEN
350
36
  3
COLORCHANGE
350
3A
  3
CONCEPTUAL
350
34
  3
DIM
350
35
  3
EDGECOLOROFF
350
3D
  3
FACEPATTERN
350
39
  3
FLAT
350
2B
  3
FLATWITHEDGES
350
2C
  3
GOURAUD
350
2D
  3
GOURAUDWITHEDGES
350
2E
  3
HIDDEN
350
31
  3
JITTEROFF
350
3B
  3
LINEPATTERN
350
38
  3
OVERHANGOFF
350
3C
  3
REALISTIC
350
33
  3
SHADED
350
42
  3
SHADED_WITH_EDGES
350
41
  3
SHADES_OF_GRAY
350
3E
  3
SKETCHY
350
3F
  3
THICKEN
350
37
  3
WIREFRAME
350
30
  3
X-RAY
350
40
  0
DICTIONARY
  5
220
102
{ACAD_REACTORS
330
C
102
}
330
C
100
AcDbDictionary
  3
CEPSNTYPE
350
229
  3
DIMSTYLEDATA
350
23F
  3
FINGERPRINTGUID
350
22A
  3
HYPERLINKBASE
350
223
  3
INSUNITS
350
228
  3
LAYOUTDICT
350
225
  3
LWETCUNION
350
227
  3
PLOTSETDICT
350
226
  3
PSVPSCALE
350
22C
  3
PUCSBASE
350
22F
  3
PUCSORGBACK
350
235
  3
PUCSORGBOTTOM
350
231
  3
PUCSORGFRONT
350
234
  3
PUCSORGLEFT
350
232
  3
PUCSORGRIGHT
350
233
  3
PUCSORGTOP
350
230
  3
PUCSORTHOREF
350
22D
  3
PUCSORTHOVIEW
350
22E
  3
STYLESHEET
350
224
  3
TSTACKALIGN
350
221
  3
TSTACKSIZE
350
222
  3
UCSBASE
350
238
  3
UCSORGBACK
350
23E
  3
UCSORGBOTTOM
350
23A
  3
UCSORGFRONT
350
23D
  3
UCSORGLEFT
350
23B
  3
UCSORGRIGHT
350
23C
  3
UCSORGTOP
350
239
  3
UCSORTHOREF
350
236
  3
UCSORTHOVIEW
350
237
  3
VERSIONGUID
350
22B
  0
DICTIONARY
  5
6C
102
{ACAD_REACTORS
330
C
102
}
330
C
100
AcDbDictionary
  3
CANNOSCALE
350
248
  3
CTABLESTYLE
350
240
  3
DIMASSOC
350
246
  3
HIDETEXT
350
247
  3
MSLTSCALE
350
249
  3
OLEFRAME
350
6D
  3
PSOLHEIGHT
350
243
  3
PSOLWIDTH
350
242
  0
DICTIONARY
  5
1E1
102
{ACAD_REACTORS
330
C
102
}
330
C
100
AcDbDictionary
280
     1
  3
DIM_UNITS
360
1E2
  3
ONSHAPE_ANG_TOL_PRECISION
360
1E5
  3
ONSHAPE_VSHARP_EXTENSION
360
1E4
  3
ONSHAPE_WELD_STANDARD
360
1E3
  0
XRECORD
  5
82
102
{ACAD_REACTORS
330
7F
102
}
330
7F
100
AcDbXrecord
 90
        1
 90
        0
  0
XRECORD
  5
99
102
{ACAD_REACTORS
330
96
102
}
330
96
100
AcDbXrecord
 90
        1
 90
        0
  0
XRECORD
  5
AA
102
{ACAD_REACTORS
330
A7
102
}
330
A7
100
AcDbXrecord
 90
        1
 90
        0
  0
XRECORD
  5
BA
102
{ACAD_REACTORS
330
B8
102
}
330
B8
100
AcDbXrecord
 90
        1
 90
        0
  0
XRECORD
  5
CC
102
{ACAD_REACTORS
330
C9
102
}
330
C9
100
AcDbXrecord
 90
        1
 90
        0
  0
XRECORD
  5
DD
102
{ACAD_REACTORS
330
DA
102
}
330
DA
100
AcDbXrecord
 90
        1
 90
        0
  0
XRECORD
  5
EE
102
{ACAD_REACTORS
330
EB
102
}
330
EB
100
AcDbXrecord
 90
        1
 90
        0
  0
XRECORD
  5
FF
102
{ACAD_REACTORS
330
FC
102
}
330
FC
100
AcDbXrecord
 90
        1
 90
        0
  0
XRECORD
  5
116
102
{ACAD_REACTORS
330
114
102
}
330
114
100
AcDbXrecord
 90
        1
 90
        0
  0
MATERIAL
  5
45
102
{ACAD_REACTORS
330
43
102
}
102
{ACAD_XDICTIONARY
360
24C
102
}
330
43
100
AcDbMaterial
  1
BYBLOCK
  0
MATERIAL
  5
44
102
{ACAD_REACTORS
330
43
102
}
102
{ACAD_XDICTIONARY
360
24A
102
}
330
43
100
AcDbMaterial
  1
BYLAYER
  0
MATERIAL
  5
46
102
{ACAD_REACTORS
330
43
102
}
102
{ACAD_XDICTIONARY
360
24E
102
}
330
43
100
AcDbMaterial
  1
GLOBAL
  0
MLINESTYLE
  5
18
102
{ACAD_REACTORS
330
17
102
}
330
17
100
AcDbMlineStyle
  2
Standard
 70
     0
  3

 62
   256
 51
90.0
 52
90.0
 71
     2
 49
0.5
 62
   256
  6
BYLAYER
 49
-0.5
 62
   256
  6
BYLAYER
  0
ACAD_PROXY_OBJECT
  5
48
102
{ACAD_REACTORS
330
47
102
}
330
47
100
AcDbProxyObject
 90
      499
 91
      503
 93
       41
310
903313A31580
  0
ACAD_PROXY_OBJECT
  5
49
102
{ACAD_REACTORS
330
47
102
}
330
47
100
AcDbProxyObject
 90
      499
 91
      503
 93
      105
310
903313A324000000000000004000
  0
ACAD_PROXY_OBJECT
  5
4A
102
{ACAD_REACTORS
330
47
102
}
330
47
100
AcDbProxyObject
 90
      499
 91
      503
 93
      105
310
903313A344000000000000104000
  0
ACAD_PROXY_OBJECT
  5
4B
102
{ACAD_REACTORS
330
47
102
}
330
47
100
AcDbProxyObject
 90
      499
 91
      503
 93
      105
310
903313A354000000000000144000
  0
ACAD_PROXY_OBJECT
  5
4C
102
{ACAD_REACTORS
330
47
102
}
330
47
100
AcDbProxyObject
 90
      499
 91
      503
 93
      105
310
903313A384000000000000204000
  0
ACAD_PROXY_OBJECT
  5
4D
102
{ACAD_REACTORS
330
47
102
}
330
47
100
AcDbProxyObject
 90
      499
 91
      503
 93
      113
310
904313A31304000000000000244000
  0
ACAD_PROXY_OBJECT
  5
4E
102
{ACAD_REACTORS
330
47
102
}
330
47
100
AcDbProxyObject
 90
      499
 91
      503
 93
      113
310
904313A31364000000000000304000
  0
ACAD_PROXY_OBJECT
  5
4F
102
{ACAD_REACTORS
330
47
102
}
330
47
100
AcDbProxyObject
 90
      499
 91
      503
 93
      113
310
904313A32304000000000000344000
  0
ACAD_PROXY_OBJECT
  5
50
102
{ACAD_REACTORS
330
47
102
}
330
47
100
AcDbProxyObject
 90
      499
 91
      503
 93
      113
310
904313A333040000000000003E4000
  0
ACAD_PROXY_OBJECT
  5
51
102
{ACAD_REACTORS
330
47
102
}
330
47
100
AcDbProxyObject
 90
      499
 91
      503
 93
      113
310
904313A34304000000000000444000
  0
ACAD_PROXY_OBJECT
  5
52
102
{ACAD_REACTORS
330
47
102
}
330
47
100
AcDbProxyObject
 90
      499
 91
      503
 93
      113
310
904313A35304000000000000494000
  0
ACAD_PROXY_OBJECT
  5
53
102
{ACAD_REACTORS
330
47
102
}
330
47
100
AcDbProxyObject
 90
      499
 91
      503
 93
      121
310
905313A3130304000000000000594000
  0
ACAD_PROXY_OBJECT
  5
54
102
{ACAD_REACTORS
330
47
102
}
330
47
100
AcDbProxyObject
 90
      499
 91
      503
 93
      105
310
903323A310000000000000010100
  0
ACAD_PROXY_OBJECT
  5
55
102
{ACAD_REACTORS
330
47
102
}
330
47
100
AcDbProxyObject
 90
      499
 91
      503
 93
      105
310
903343A310000000000000410100
  0
ACAD_PROXY_OBJECT
  5
56
102
{ACAD_REACTORS
330
47
102
}
330
47
100
AcDbProxyObject
 90
      499
 91
      503
 93
      105
310
903383A310000000000000810100
  0
ACAD_PROXY_OBJECT
  5
57
102
{ACAD_REACTORS
330
47
102
}
330
47
100
AcDbProxyObject
 90
      499
 91
      503
 93
      113
310
90431303A310000000000000910100
  0
ACAD_PROXY_OBJECT
  5
58
102
{ACAD_REACTORS
330
47
102
}
330
47
100
AcDbProxyObject
 90
      499
 91
      503
 93
      121
310
9053130303A310000000000001650100
  0
ACAD_PROXY_OBJECT
  5
59
102
{ACAD_REACTORS
330
47
102
}
330
47
100
AcDbProxyObject
 90
      499
 91
      503
 93
      257
310
90E312F31323822203D2031272D3022000000000000200FC000000000000284000
  0
ACAD_PROXY_OBJECT
  5
5A
102
{ACAD_REACTORS
330
47
102
}
330
47
100
AcDbProxyObject
 90
      499
 91
      503
 93
      249
310
90D312F363422203D2031272D3022000000000000240FC000000000000284000
  0
ACAD_PROXY_OBJECT
  5
5B
102
{ACAD_REACTORS
330
47
102
}
330
47
100
AcDbProxyObject
 90
      499
 91
      503
 93
      249
310
90D312F333222203D2031272D3022000000000000280FC000000000000284000
  0
ACAD_PROXY_OBJECT
  5
5C
102
{ACAD_REACTORS
330
47
102
}
330
47
100
AcDbProxyObject
 90
      499
 91
      503
 93
      249
310
90D312F313622203D2031272D30220000000000002C0FC000000000000284000
  0
ACAD_PROXY_OBJECT
  5
5D
102
{ACAD_REACTORS
330
47
102
}
330
47
100
AcDbProxyObject
 90
      499
 91
      503
 93
      249
310
90D332F333222203D2031272D30220000000000002E0FC000000000000284000
  0
ACAD_PROXY_OBJECT
  5
5E
102
{ACAD_REACTORS
330
47
102
}
330
47
100
AcDbProxyObject
 90
      499
 91
      503
 93
      241
310
90C312F3822203D2031272D3022000000000000300FC000000000000284000
  0
ACAD_PROXY_OBJECT
  5
5F
102
{ACAD_REACTORS
330
47
102
}
330
47
100
AcDbProxyObject
 90
      499
 91
      503
 93
      249
310
90D332F313622203D2031272D3022000000000000320FC000000000000284000
  0
ACAD_PROXY_OBJECT
  5
60
102
{ACAD_REACTORS
330
47
102
}
330
47
100
AcDbProxyObject
 90
      499
 91
      503
 93
      241
310
90C312F3422203D2031272D3022000000000000340FC000000000000284000
  0
ACAD_PROXY_OBJECT
  5
61
102
{ACAD_REACTORS
330
47
102
}
330
47
100
AcDbProxyObject
 90
      499
 91
      503
 93
      241
310
90C332F3822203D2031272D3022000000000000360FC000000000000284000
  0
ACAD_PROXY_OBJECT
  5
62
102
{ACAD_REACTORS
330
47
102
}
330
47
100
AcDbProxyObject
 90
      499
 91
      503
 93
      241
310
90C312F3222203D2031272D3022000000000000380FC000000000000284000
  0
ACAD_PROXY_OBJECT
  5
63
102
{ACAD_REACTORS
330
47
102
}
330
47
100
AcDbProxyObject
 90
      499
 91
      503
 93
      241
310
90C332F3422203D2031272D30220000000000003A0FC000000000000284000
  0
ACAD_PROXY_OBJECT
  5
64
102
{ACAD_REACTORS
330
47
102
}
330
47
100
AcDbProxyObject
 90
      499
 91
      503
 93
      161
310
90A3122203D2031272D30224000000000000284000
  0
ACAD_PROXY_OBJECT
  5
65
102
{ACAD_REACTORS
330
47
102
}
330
47
100
AcDbProxyObject
 90
      499
 91
      503
 93
      257
310
90E312D312F3222203D2031272D30220000000000003E0FC000000000000284000
  0
ACAD_PROXY_OBJECT
  5
66
102
{ACAD_REACTORS
330
47
102
}
330
47
100
AcDbProxyObject
 90
      499
 91
      503
 93
      225
310
90A3322203D2031272D302200000000000002100000000000000284000
  0
ACAD_PROXY_OBJECT
  5
67
102
{ACAD_REACTORS
330
47
102
}
330
47
100
AcDbProxyObject
 90
      499
 91
      503
 93
      225
310
90A3622203D2031272D302200000000000006100000000000000284000
  0
ACAD_PROXY_OBJECT
  5
68
102
{ACAD_REACTORS
330
47
102
}
330
47
100
AcDbProxyObject
 90
      499
 91
      503
 93
      249
310
90D31272D3022203D2031272D30220000000000000A100000000000000284000
  0
ACAD_PROXY_OBJECT
  5
2F
102
{ACAD_REACTORS
330
2A
102
}
330
2A
100
AcDbProxyObject
 90
      499
 91
      501
 93
      436
310
42CC9915DA5C99599C985B595049028333333333333E33F0000000000000F90107901411070040501600405405064090741402480A0340
1001
ACAD
1000
AcDbSavedByObjectVersion
1070
     0
  0
ACAD_PROXY_OBJECT
  5
32
102
{ACAD_REACTORS
330
2A
102
}
330
2A
100
AcDbProxyObject
 90
      499
 91
      501
 93
      388
310
4150985CDA58D07406404333333333333E33F0000000000000F90107A41107004050150841D405064090741402480A0350
1001
ACAD
1000
AcDbSavedByObjectVersion
1070
     0
  0
ACAD_PROXY_OBJECT
  5
36
102
{ACAD_REACTORS
330
2A
102
}
330
2A
100
AcDbProxyObject
 90
      499
 91
      501
 93
      428
310
42109C9A59DA1D195B90C409028333333333333E33F0000000000000F9010790141107004050150841D405064090741402480A029950
1001
ACAD
1000
AcDbSavedByObjectVersion
1070
     0
  0
ACAD_PROXY_OBJECT
  5
3A
102
{ACAD_REACTORS
330
2A
102
}
330
2A
100
AcDbProxyObject
 90
      499
 91
      501
 93
      452
310
42D0DBDB1BDC90DA185B99D95104090240C333333333333E33F0000000000000F90108901411070040501508421405064090741402480A0350
1001
ACAD
1000
AcDbSavedByObjectVersion
1070
     0
  0
ACAD_PROXY_OBJECT
  5
34
102
{ACAD_REACTORS
330
2A
102
}
330
2A
100
AcDbProxyObject
 90
      499
 91
      501
 93
      500
310
4290DBDB98D95C1D1D585B10940D028333333333333E33F0000000000000F90107902409070040501000000000018199010841D405064090740C02480A0340
1001
ACAD
1000
AcDbSavedByObjectVersion
1070
     0
  0
ACAD_PROXY_OBJECT
  5
35
102
{ACAD_REACTORS
330
2A
102
}
330
2A
100
AcDbProxyObject
 90
      499
 91
      501
 93
      412
310
40D11A5B50B409028333333333333E33F0000000000000F9010790141107004050150841D405064090741402480A02677FFFFFD0
1001
ACAD
1000
AcDbSavedByObjectVersion
1070
     0
  0
ACAD_PROXY_OBJECT
  5
3D
102
{ACAD_REACTORS
330
2A
102
}
330
2A
100
AcDbProxyObject
 90
      499
 91
      501
 93
      452
310
43115919D950DBDB1BDC93D999916409028333333333333E33F0000000000000F9010790141107004050150841D405064090741402480A0350
1001
ACAD
1000
AcDbSavedByObjectVersion
1070
     0
  0
ACAD_PROXY_OBJECT
  5
39
102
{ACAD_REACTORS
330
2A
102
}
330
2A
100
AcDbProxyObject
 90
      499
 91
      501
 93
      444
310
42D19858D95C185D1D195C9B90F409028333333333333E33F0000000000000F9010790141107004050150841D405064090741402480A0350
1001
ACAD
1000
AcDbSavedByObjectVersion
1070
     0
  0
ACAD_PROXY_OBJECT
  5
2B
102
{ACAD_REACTORS
330
2A
102
}
330
2A
100
AcDbProxyObject
 90
      499
 91
      501
 93
      380
310
41119B185D240901404333333333333E33F0000000000000F9010740A907004050150841D405064090741402480A1B50
1001
ACAD
1000
AcDbSavedByObjectVersion
1070
     0
  0
ACAD_PROXY_OBJECT
  5
2C
102
{ACAD_REACTORS
330
2A
102
}
330
2A
100
AcDbProxyObject
 90
      499
 91
      501
 93
      468
310
43519B185D15DA5D1A115919D95CD0140901404333333333333E33F0000000000000F90107409019070040501600405405064090741402480A1B50
1001
ACAD
1000
AcDbSavedByObjectVersion
1070
     0
  0
ACAD_PROXY_OBJECT
  5
2D
102
{ACAD_REACTORS
330
2A
102
}
330
2A
100
AcDbProxyObject
 90
      499
 91
      501
 93
      404
310
41D1DBDD5C985D5910240902404333333333333E33F0000000000000F9010740A9070040501641D405064090741402480A1B50
1001
ACAD
1000
AcDbSavedByObjectVersion
1070
     0
  0
ACAD_PROXY_OBJECT
  5
2E
102
{ACAD_REACTORS
330
2A
102
}
330
2A
100
AcDbProxyObject
 90
      499
 91
      501
 93
      492
310
4411DBDD5C985D5915DA5D1A115919D95CD0340902404333333333333E33F0000000000000F90107409019070040501600405405064090741402480A1B50
1001
ACAD
1000
AcDbSavedByObjectVersion
1070
     0
  0
ACAD_PROXY_OBJECT
  5
31
102
{ACAD_REACTORS
330
2A
102
}
330
2A
100
AcDbProxyObject
 90
      499
 91
      501
 93
      476
310
41921A5919195B90640502408333333333333E33F0000000000000F901079024090700405020000000000001110200405405064090740C02480A0340
1001
ACAD
1000
AcDbSavedByObjectVersion
1070
     0
  0
ACAD_PROXY_OBJECT
  5
3B
102
{ACAD_REACTORS
330
2A
102
}
330
2A
100
AcDbProxyObject
 90
      499
 91
      501
 93
      428
310
42529A5D1D195C93D999914409028333333333333E33F0000000000000F9010790141107004050150A41D405064090741402480A0350
1001
ACAD
1000
AcDbSavedByObjectVersion
1070
     0
  0
ACAD_PROXY_OBJECT
  5
38
102
{ACAD_REACTORS
330
2A
102
}
330
2A
100
AcDbProxyObject
 90
      499
 91
      501
 93
      444
310
42D31A5B995C185D1D195C9B90E409028333333333333E33F0000000000000F9010790141107004050750841D405064090741402483A0350
1001
ACAD
1000
AcDbSavedByObjectVersion
1070
     0
  0
ACAD_PROXY_OBJECT
  5
3C
102
{ACAD_REACTORS
330
2A
102
}
330
2A
100
AcDbProxyObject
 90
      499
 91
      501
 93
      444
310
42D3DD995C9A185B99D3D999915409028333333333333E33F0000000000000F9010790141107004050150941D405064090741402480A0350
1001
ACAD
1000
AcDbSavedByObjectVersion
1070
     0
  0
ACAD_PROXY_OBJECT
  5
33
102
{ACAD_REACTORS
330
2A
102
}
330
2A
100
AcDbProxyObject
 90
      499
 91
      501
 93
      428
310
425499585B1A5CDD1A58D08409038333333333333E33F0000000000000F9010740A907004050150800405405064090740C02480A1B40
1001
ACAD
1000
AcDbSavedByObjectVersion
1070
     0
  0
ACAD_PROXY_OBJECT
  5
42
102
{ACAD_REACTORS
330
2A
102
}
330
2A
100
AcDbProxyObject
 90
      499
 91
      501
 93
      420
310
4194DA1859195911B40902404333333333333E33F0000000000000F9010740A41107004050150800405405064090840C02480A0B40
1001
ACAD
1000
AcDbSavedByObjectVersion
1070
     0
  0
ACAD_PROXY_OBJECT
  5
41
102
{ACAD_REACTORS
330
2A
102
}
330
2A
100
AcDbProxyObject
 90
      499
 91
      501
 93
      516
310
4454DA18591959081DDA5D1A08195919D95CD1A40902404333333333333E33F0000000000000F901074090142907004050250800405405064090740C02480A0B40
1001
ACAD
1000
AcDbSavedByObjectVersion
1070
     0
  0
ACAD_PROXY_OBJECT
  5
3E
102
{ACAD_REACTORS
330
2A
102
}
330
2A
100
AcDbProxyObject
 90
      499
 91
      501
 93
      532
310
4394DA1859195CC81BD98811DC985E5174090240C333333333333E33F0000000000000F901079024090741D01000000000000111010841D405064090740C02480A0340
1001
ACAD
1000
AcDbSavedByObjectVersion
1070
     0
  0
ACAD_PROXY_OBJECT
  5
3F
102
{ACAD_REACTORS
330
2A
102
}
330
2A
100
AcDbProxyObject
 90
      499
 91
      501
 93
      476
310
41D4DAD95D18DA1E51840502408333333333333E33F0000000000000F901079024090741D01000000000000111010B41D405064090741802480A0340
1001
ACAD
1000
AcDbSavedByObjectVersion
1070
     0
  0
ACAD_PROXY_OBJECT
  5
37
102
{ACAD_REACTORS
330
2A
102
}
330
2A
100
AcDbProxyObject
 90
      499
 91
      501
 93
      412
310
41D51A1A58DAD95B90D409028333333333333E33F0000000000000F9010790141107004050150C41D405064090741402480A0350
1001
ACAD
1000
AcDbSavedByObjectVersion
1070
     0
  0
ACAD_PROXY_OBJECT
  5
30
102
{ACAD_REACTORS
330
2A
102
}
330
2A
100
AcDbProxyObject
 90
      499
 91
      501
 93
      420
310
4255DA5C99599C985B595059028333333333333E33F0000000000000F90107901411070040501600405405064090740C02480A0340
1001
ACAD
1000
AcDbSavedByObjectVersion
1070
     0
  0
ACAD_PROXY_OBJECT
  5
40
102
{ACAD_REACTORS
330
2A
102
}
330
2A
100
AcDbProxyObject
 90
      499
 91
      501
 93
      404
310
41560B54985E51940902404000000000000E03F0000000000000F9010740501907004050150841D405064090740C02480A1B40
1001
ACAD
1000
AcDbSavedByObjectVersion
1070
     0
  0
XRECORD
  5
229
102
{ACAD_REACTORS
330
220
102
}
330
220
100
AcDbXrecord
 90
        0
  0
XRECORD
  5
23F
102
{ACAD_REACTORS
330
220
102
}
330
220
100
AcDbXrecord
1000
DSTYLE
1002
{
1070
   179
 70
     1
1070
   143
 40
0.03937
1070
   285
 70
     8
1070
   176
 70
     7
1070
   177
 70
     7
1070
   178
 70
     7
1070
   144
 40
0.5
1070
   371
 70
    13
1070
   372
 70
    13
1070
   340
340
71
1070
   140
 40
3.5
1070
   288
 70
     1
1002
}
  0
XRECORD
  5
22A
102
{ACAD_REACTORS
330
220
102
}
330
220
100
AcDbXrecord
  1
{12CBC4DA-092A-EDF3-B3EC-8143CCB40873}
  0
XRECORD
  5
223
102
{ACAD_REACTORS
330
220
102
}
330
220
100
AcDbXrecord
  1

  0
XRECORD
  5
228
102
{ACAD_REACTORS
330
220
102
}
330
220
100
AcDbXrecord
 90
        4
  0
XRECORD
  5
225
102
{ACAD_REACTORS
330
220
102
}
330
220
100
AcDbXrecord
340
1A
  0
XRECORD
  5
227
102
{ACAD_REACTORS
330
220
102
}
330
220
100
AcDbXrecord
 90
    10269
  0
XRECORD
  5
226
102
{ACAD_REACTORS
330
220
102
}
330
220
100
AcDbXrecord
340
19
  0
XRECORD
  5
22C
102
{ACAD_REACTORS
330
220
102
}
330
220
100
AcDbXrecord
 40
0.0
  0
XRECORD
  5
22F
102
{ACAD_REACTORS
330
220
102
}
330
220
100
AcDbXrecord
340
0
  0
XRECORD
  5
235
102
{ACAD_REACTORS
330
220
102
}
330
220
100
AcDbXrecord
 10
0.0
 20
0.0
 30
0.0
  0
XRECORD
  5
231
102
{ACAD_REACTORS
330
220
102
}
330
220
100
AcDbXrecord
 10
0.0
 20
0.0
 30
0.0
  0
XRECORD
  5
234
102
{ACAD_REACTORS
330
220
102
}
330
220
100
AcDbXrecord
 10
0.0
 20
0.0
 30
0.0
  0
XRECORD
  5
232
102
{ACAD_REACTORS
330
220
102
}
330
220
100
AcDbXrecord
 10
0.0
 20
0.0
 30
0.0
  0
XRECORD
  5
233
102
{ACAD_REACTORS
330
220
102
}
330
220
100
AcDbXrecord
 10
0.0
 20
0.0
 30
0.0
  0
XRECORD
  5
230
102
{ACAD_REACTORS
330
220
102
}
330
220
100
AcDbXrecord
 10
0.0
 20
0.0
 30
0.0
  0
XRECORD
  5
22D
102
{ACAD_REACTORS
330
220
102
}
330
220
100
AcDbXrecord
340
0
  0
XRECORD
  5
22E
102
{ACAD_REACTORS
330
220
102
}
330
220
100
AcDbXrecord
 70
     0
  0
XRECORD
  5
224
102
{ACAD_REACTORS
330
220
102
}
330
220
100
AcDbXrecord
  1

  0
XRECORD
  5
221
102
{ACAD_REACTORS
330
220
102
}
330
220
100
AcDbXrecord
 90
        1
  0
XRECORD
  5
222
102
{ACAD_REACTORS
330
220
102
}
330
220
100
AcDbXrecord
 90
       70
  0
XRECORD
  5
238
102
{ACAD_REACTORS
330
220
102
}
330
220
100
AcDbXrecord
340
0
  0
XRECORD
  5
23E
102
{ACAD_REACTORS
330
220
102
}
330
220
100
AcDbXrecord
 10
0.0
 20
0.0
 30
0.0
  0
XRECORD
  5
23A
102
{ACAD_REACTORS
330
220
102
}
330
220
100
AcDbXrecord
 10
0.0
 20
0.0
 30
0.0
  0
XRECORD
  5
23D
102
{ACAD_REACTORS
330
220
102
}
330
220
100
AcDbXrecord
 10
0.0
 20
0.0
 30
0.0
  0
XRECORD
  5
23B
102
{ACAD_REACTORS
330
220
102
}
330
220
100
AcDbXrecord
 10
0.0
 20
0.0
 30
0.0
  0
XRECORD
  5
23C
102
{ACAD_REACTORS
330
220
102
}
330
220
100
AcDbXrecord
 10
0.0
 20
0.0
 30
0.0
  0
XRECORD
  5
239
102
{ACAD_REACTORS
330
220
102
}
330
220
100
AcDbXrecord
 10
0.0
 20
0.0
 30
0.0
  0
XRECORD
  5
236
102
{ACAD_REACTORS
330
220
102
}
330
220
100
AcDbXrecord
340
0
  0
XRECORD
  5
237
102
{ACAD_REACTORS
330
220
102
}
330
220
100
AcDbXrecord
 70
     0
  0
XRECORD
  5
22B
102
{ACAD_REACTORS
330
220
102
}
330
220
100
AcDbXrecord
  1
{FAEB1C32-E019-11D5-929B-00C0DF256EC4}
  0
DICTIONARYVAR
  5
248
102
{ACAD_REACTORS
330
6C
102
}
330
6C
100
DictionaryVariables
280
     0
  1
1:1
  0
DICTIONARYVAR
  5
240
102
{ACAD_REACTORS
330
6C
102
}
330
6C
100
DictionaryVariables
280
     0
  1
Onshape-Standard
  0
DICTIONARYVAR
  5
246
102
{ACAD_REACTORS
330
6C
102
}
330
6C
100
DictionaryVariables
280
     0
  1
2
  0
DICTIONARYVAR
  5
247
102
{ACAD_REACTORS
330
6C
102
}
330
6C
100
DictionaryVariables
280
     0
  1
1
  0
DICTIONARYVAR
  5
249
102
{ACAD_REACTORS
330
6C
102
}
330
6C
100
DictionaryVariables
280
     0
  1
1
  0
DICTIONARYVAR
  5
6D
102
{ACAD_REACTORS
330
6C
102
}
330
6C
100
DictionaryVariables
280
     0
  1
0
  0
DICTIONARYVAR
  5
243
102
{ACAD_REACTORS
330
6C
102
}
330
6C
100
DictionaryVariables
280
     0
  1
80.000000
  0
DICTIONARYVAR
  5
242
102
{ACAD_REACTORS
330
6C
102
}
330
6C
100
DictionaryVariables
280
     0
  1
5.000000
  0
XRECORD
  5
1E2
102
{ACAD_REACTORS
330
1E1
102
}
330
1E1
100
AcDbXrecord
 70
     4
  0
XRECORD
  5
1E5
102
{ACAD_REACTORS
330
1E1
102
}
330
1E1
100
AcDbXrecord
 90
        0
  0
XRECORD
  5
1E4
102
{ACAD_REACTORS
330
1E1
102
}
330
1E1
100
AcDbXrecord
 90
        0
  0
XRECORD
  5
1E3
102
{ACAD_REACTORS
330
1E1
102
}
330
1E1
100
AcDbXrecord
 90
        1
  0
DICTIONARY
  5
24C
330
45
100
AcDbDictionary
280
     1
  3
ACAD_XREC_ROUNDTRIP
360
24D
  0
DICTIONARY
  5
24A
330
44
100
AcDbDictionary
280
     1
  3
ACAD_XREC_ROUNDTRIP
360
24B
  0
DICTIONARY
  5
24E
330
46
100
AcDbDictionary
280
     1
  3
ACAD_XREC_ROUNDTRIP
360
24F
  0
XRECORD
  5
24D
102
{ACAD_REACTORS
330
24C
102
}
330
24C
100
AcDbXrecord
102
MATERIAL
148
0.0
149
0.0
149
0.0
 93
        0
 94
      127
282
     0
 72
     1
 77
     1
171
     1
175
     1
179
     1
273
     0
  0
XRECORD
  5
24B
102
{ACAD_REACTORS
330
24A
102
}
330
24A
100
AcDbXrecord
102
MATERIAL
148
0.0
149
0.0
149
0.0
 93
        0
 94
      127
282
     0
 72
     1
 77
     1
171
     1
175
     1
179
     1
273
     0
  0
XRECORD
  5
24F
102
{ACAD_REACTORS
330
24E
102
}
330
24E
100
AcDbXrecord
102
MATERIAL
148
0.0
149
0.0
149
0.0
 93
        0
 94
      127
282
     0
 72
     1
 77
     1
171
     1
175
     1
179
     1
273
     0
  0
ENDSEC
  0
EOF
